<?xml version="1.0" standalone="no"?>
<!DOCTYPE svg PUBLIC "-//W3C//DTD SVG 1.1//EN" "http://www.w3.org/Graphics/SVG/1.1/DTD/svg11.dtd" >
<svg xmlns="http://www.w3.org/2000/svg">
<metadata></metadata>
<defs>
<font id="nanumsquarebregular" horiz-adv-x="910" >
<font-face units-per-em="1000" ascent="800" descent="-200" />
<missing-glyph horiz-adv-x="250" />
<glyph unicode=" "  horiz-adv-x="250" />
<glyph unicode="&#x09;" horiz-adv-x="250" />
<glyph unicode="&#xa0;" horiz-adv-x="250" />
<glyph unicode="!" horiz-adv-x="300" d="M93 48h114v-115h-114v115zM108 151l-14 583h112l-14 -583h-84z" />
<glyph unicode="&#x22;" horiz-adv-x="387" d="M70 488l-10 246h104l-10 -246h-84zM233 488l-10 246h104l-10 -246h-84z" />
<glyph unicode="#" horiz-adv-x="614" d="M543 262v-87h-113l-28 -201h-80l28 201h-131l-27 -201h-81l28 201h-99v87h111l21 150h-101v87h114l27 196h80l-27 -196h130l27 196h81l-28 -196h99v-87h-111l-21 -150h101zM383 412h-131l-21 -150h131z" />
<glyph unicode="$" horiz-adv-x="628" d="M286 -21q-64 4 -124.5 25.5t-101.5 54.5l50 75q35 -27 81.5 -46.5t94.5 -24.5v240q-47 11 -86 25.5t-67 36.5t-43.5 53.5t-15.5 76.5v18q0 34 13 64t39.5 54t66 39.5t93.5 19.5v61h61v-60q59 -3 108.5 -20t84.5 -44l-48 -70q-68 45 -145 51v-231q63 -17 105.5 -35.5 t68 -42t36.5 -52t11 -64.5v-15q0 -45 -16.5 -79t-45.5 -57t-70 -36t-89 -16v-73h-61v72zM471 176q0 19 -5 35t-19 29.5t-38 25.5t-62 22v-225q62 7 93 34t31 64v15zM170 497q0 -43 30 -65t86 -39v214q-61 -6 -88.5 -33.5t-27.5 -59.5v-17z" />
<glyph unicode="%" horiz-adv-x="893" d="M186 -25l431 720h89l-430 -720h-90zM227 706q76 0 119.5 -45t43.5 -124v-42q0 -79 -43.5 -124t-119.5 -45t-119.5 45t-43.5 124v42q0 79 43.5 124t119.5 45zM227 394q85 0 85 103v38q0 103 -85 103t-85 -103v-38q0 -103 85 -103zM666 346q76 0 119.5 -45t43.5 -124v-42 q0 -79 -43.5 -124t-119.5 -45t-119.5 45t-43.5 124v42q0 79 43.5 124t119.5 45zM666 34q85 0 85 103v38q0 103 -85 103t-85 -103v-38q0 -103 85 -103z" />
<glyph unicode="&#x26;" horiz-adv-x="677" d="M281 49q48 0 88 16.5t70 45.5l-169 202q-35 -19 -61 -35.5t-42.5 -33.5t-24.5 -35.5t-8 -40.5v-16q0 -21 11 -39.5t31 -33t46.5 -22.5t58.5 -8zM217 544q0 -14 7 -29t17.5 -31t24 -32.5t26.5 -31.5q33 19 53 35.5t31 32t15 29.5t4 27v11q0 28 -26 47.5t-63 19.5 q-42 0 -65.5 -20.5t-23.5 -46.5v-11zM616 361q0 -152 -63 -249l116 -137h-114l-59 70q-45 -42 -101 -62t-112 -20h-6q-45 0 -87.5 11t-75.5 34t-53 58t-20 83v23q0 34 10.5 63t32 54t53.5 47t76 44q-15 18 -30.5 36.5t-27.5 38t-20 41t-8 45.5v18q0 29 11.5 55.5t34 47 t56 32.5t77.5 12q42 0 75 -13t56.5 -34t36 -47t12.5 -53v-19q0 -24 -6.5 -47t-22.5 -45.5t-43 -45.5t-68 -47l146 -171q17 32 25 73t8 104h91z" />
<glyph unicode="'" horiz-adv-x="228" d="M70 488l-10 246h108l-10 -246h-88z" />
<glyph unicode="(" horiz-adv-x="337" d="M177 274q0 -114 30 -226t107 -218h-92q-75 89 -111 202t-36 247v40q0 134 36 246t111 201h92q-74 -100 -105.5 -210.5t-31.5 -231.5v-50z" />
<glyph unicode=")" horiz-adv-x="337" d="M160 324q0 121 -31.5 231.5t-105.5 210.5h92q75 -89 111 -201t36 -246v-40q0 -134 -36 -247t-111 -202h-92q77 106 107 218t30 226v50z" />
<glyph unicode="*" horiz-adv-x="469" d="M84 400l-41 77l139 59l-139 58l41 77l119 -83l-11 143h86l-12 -143l120 83l40 -77l-139 -58l139 -59l-40 -77l-120 83l12 -142h-86l12 142z" />
<glyph unicode="+" horiz-adv-x="600" d="M345 571v-211h207v-84h-207v-225h-90v225h-207v84h207v211h90z" />
<glyph unicode="," horiz-adv-x="294" d="M100 53h115l-77 -228h-80z" />
<glyph unicode="-" horiz-adv-x="420" d="M46 376h326v-84h-326v84z" />
<glyph unicode="." horiz-adv-x="294" d="M90 48h114v-115h-114v115z" />
<glyph unicode="/" horiz-adv-x="437" d="M419 768l-306 -896h-95l305 896h96z" />
<glyph unicode="0" horiz-adv-x="610" d="M560 279q0 -153 -62.5 -234.5t-192.5 -81.5q-129 0 -192 82t-63 234v112q0 152 64 233.5t191 81.5q128 0 191.5 -81.5t63.5 -233.5v-112zM459 392q0 66 -11.5 109t-32.5 68t-49 35t-61 10q-32 0 -60 -10t-49 -35.5t-33 -68t-12 -108.5v-114q0 -66 12 -109.5t33 -68.5 t49 -35t60 -10q33 0 61 10t49 35t32.5 68t11.5 110v114z" />
<glyph unicode="1" horiz-adv-x="610" d="M326 -26v605l-169 -100l-47 80l232 136h83v-721h-99z" />
<glyph unicode="2" horiz-adv-x="610" d="M333 349q31 34 49 59t27 44.5t11.5 35t2.5 29.5v8q0 43 -33.5 67.5t-90.5 24.5q-20 0 -40.5 -4.5t-40.5 -16.5t-39 -32.5t-37 -51.5l-76 49q13 23 32 48.5t46.5 47t65 35.5t87.5 14q55 0 97 -13.5t70.5 -37.5t43 -57.5t14.5 -72.5v-10q0 -59 -31 -111t-80 -104l-225 -240 h362v-86h-484v83z" />
<glyph unicode="3" horiz-adv-x="610" d="M75 598q16 22 35.5 42t45 34.5t57 23t72.5 8.5q50 0 90 -13t68.5 -36.5t44 -57t15.5 -73.5v-10q0 -21 -5 -45t-18 -46t-35 -41t-55 -31q73 -13 109.5 -58t36.5 -108v-15q0 -40 -14.5 -77.5t-45 -67t-78.5 -47t-114 -17.5q-63 0 -121.5 19.5t-109.5 60.5l49 79 q53 -38 94 -53.5t88 -15.5q39 0 68 9.5t48 25.5t28 37.5t9 45.5v13q0 36 -11.5 59.5t-31.5 37.5t-47.5 20t-58.5 6h-89v86h85q34 0 57 10.5t37 27.5t20.5 39t6.5 45v8q0 24 -9.5 41.5t-25.5 29.5t-38 18t-46 6q-45 0 -78 -17t-62 -55z" />
<glyph unicode="4" horiz-adv-x="610" d="M485 434v-221h102v-84h-102v-155h-98v155h-360v74l339 492h109l-332 -482h244v221h98z" />
<glyph unicode="5" horiz-adv-x="610" d="M559 191q0 -40 -14 -80.5t-44 -73.5t-78 -53.5t-115 -20.5q-74 0 -134 19.5t-111 60.5l49 79q52 -41 99.5 -55t98.5 -14q39 0 67.5 12t47 31.5t27 44.5t8.5 50v12q0 72 -38 107.5t-107 35.5q-46 0 -81.5 -17t-59.5 -40h-76l23 406h391v-85h-301l-11 -225q24 18 61.5 31 t82.5 13q51 0 91 -17.5t67.5 -48t42 -71t14.5 -86.5v-15z" />
<glyph unicode="6" horiz-adv-x="610" d="M488 573q-34 20 -73 31t-82 11q-37 0 -67.5 -12.5t-53 -41.5t-36 -77t-16.5 -119q9 16 25.5 30.5t39 26t50 18.5t57.5 7q48 0 89.5 -16t72 -46t48 -72.5t17.5 -95.5v-22q0 -52 -18 -94.5t-50 -73t-77.5 -47.5t-100.5 -17q-122 0 -186.5 75.5t-64.5 221.5v37 q0 118 20.5 197t57 126t87.5 66.5t112 19.5q49 0 97.5 -12t89.5 -37zM163 205q0 -70 39 -111t107 -41q70 0 110.5 38t40.5 109v13q0 72 -41 109t-107 37q-33 0 -60.5 -11t-47 -29.5t-30.5 -44t-11 -55.5v-14z" />
<glyph unicode="7" horiz-adv-x="610" d="M271 -26h-108l286 635h-392v86h499v-76z" />
<glyph unicode="8" horiz-adv-x="610" d="M185 499q0 -54 34.5 -84t85.5 -30t85.5 30t34.5 84v11q0 51 -33 80t-87 29t-87 -29t-33 -80v-11zM166 166q0 -51 37.5 -82.5t102.5 -31.5t101.5 31.5t36.5 82.5v11q0 59 -39 90t-99 31q-29 0 -54.5 -7.5t-44.5 -23t-30 -38t-11 -52.5v-11zM64 178q0 30 9.5 56.5t26.5 48 t39.5 37.5t48.5 24q-52 25 -77.5 69t-25.5 90v14q0 39 14.5 73t42.5 60t69 41t94 15q52 0 93 -15t69 -41t43 -60t15 -73v-14q0 -46 -25 -89t-78 -70q53 -16 88.5 -61t35.5 -105v-17q0 -43 -16.5 -79.5t-47.5 -62.5t-75.5 -41t-101.5 -15t-101.5 15t-75.5 41t-47.5 62.5 t-16.5 79.5v17z" />
<glyph unicode="9" horiz-adv-x="610" d="M122 98q34 -20 73 -32t82 -12q37 0 68.5 12t54 40.5t35.5 75.5t15 118q-9 -16 -26 -30.5t-39.5 -26t-49.5 -18.5t-57 -7q-48 0 -89.5 16t-72 46t-48 72.5t-17.5 95.5v22q0 52 18 95t50 74.5t77.5 49t100.5 17.5q121 0 186 -73.5t65 -219.5v-37q0 -119 -18 -198 t-53.5 -127t-87 -68t-118.5 -20q-49 0 -97.5 13t-89.5 38zM447 462q0 70 -39 112t-107 42q-70 0 -110.5 -39t-40.5 -110v-13q0 -72 42 -110t106 -38q33 0 60.5 11t47 30.5t30.5 45t11 55.5v14z" />
<glyph unicode=":" horiz-adv-x="354" d="M120 128h114v-115h-114v115zM120 574h114v-115h-114v115z" />
<glyph unicode=";" horiz-adv-x="354" d="M120 574h114v-115h-114v115zM130 133h115l-77 -228h-80z" />
<glyph unicode="&#x3c;" horiz-adv-x="610" d="M179 318l362 -187v-100l-472 250v79l472 250v-99l-362 -187v-6z" />
<glyph unicode="=" horiz-adv-x="610" d="M74 468h462v-85h-462v85zM74 257h462v-85h-462v85z" />
<glyph unicode="&#x3e;" horiz-adv-x="610" d="M431 324l-362 187v99l472 -250v-79l-472 -250v100l362 187v6z" />
<glyph unicode="?" horiz-adv-x="542" d="M198 141v46q0 25 4 44.5t14.5 38.5t28.5 40t45 48l45.5 45.5t30 34t16.5 32t5 40.5v13q0 38 -28.5 66.5t-90.5 28.5q-49 0 -89.5 -19.5t-72.5 -52.5l-60 69q39 42 92.5 66.5t127.5 24.5q105 0 163 -50t58 -132v-14q0 -37 -10.5 -65t-28 -52t-40 -45t-45.5 -43 q-17 -16 -28.5 -29.5t-19.5 -27.5t-11.5 -29.5t-3.5 -34.5v-43h-102zM193 48h114v-115h-114v115z" />
<glyph unicode="@" horiz-adv-x="993" d="M758 40q-40 0 -77 20.5t-52 65.5h-1q-9 -24 -27 -40t-39.5 -26t-43.5 -14t-40 -4q-96 0 -146 54t-50 145v78q0 92 48.5 145.5t132.5 53.5q56 0 89 -17t47 -41v52h94v-315q0 -42 17 -61.5t49 -19.5q25 0 44 9.5t32 31t20 56t7 84.5v11q0 84 -24.5 150t-72.5 112.5t-118 71 t-161 24.5q-78 0 -143 -25t-111.5 -72.5t-72.5 -116.5t-26 -156v-17q0 -93 25.5 -164.5t73.5 -120t117.5 -74t156.5 -25.5q75 0 149 16.5t136 48.5l28 -70q-63 -34 -141.5 -52.5t-168.5 -18.5q-108 0 -193 32t-144 92t-90.5 145t-31.5 190v19q0 96 30.5 177.5t87 140.5 t137 92.5t181.5 33.5q111 0 196 -31.5t143 -88.5t88 -136t30 -174v-13q0 -44 -8.5 -89.5t-29.5 -83t-56.5 -61.5t-90.5 -24zM381 257q0 -57 25 -90.5t79 -33.5q21 0 40.5 5t35 17t24.5 32t9 50v88q0 20 -5.5 38.5t-18.5 33t-34 23t-51 8.5q-49 0 -76.5 -27t-27.5 -98v-46z " />
<glyph unicode="A" horiz-adv-x="673" d="M653 -26h-104l-76 212h-276l-76 -212h-101l268 721h96zM227 271h216l-60 169l-14 38.5t-11 32t-10.5 32.5t-12.5 42q-8 -25 -13 -42.5t-10 -32.5l-10.5 -31.5t-13.5 -38.5z" />
<glyph unicode="B" horiz-adv-x="635" d="M82 695h256q229 0 229 -176v-21q0 -24 -6 -46.5t-19.5 -41.5t-36 -33.5t-54.5 -22.5q66 -10 107.5 -50t41.5 -115v-25q0 -89 -56.5 -139.5t-174.5 -50.5h-287v721zM181 60h151q42 0 73.5 4.5t52 16.5t30.5 32.5t10 52.5v22q0 33 -9 56t-31 38t-58 21.5t-90 6.5h-129v-250 zM181 610v-219h128q37 0 66.5 4t49.5 16t30.5 33t10.5 55v18q0 32 -9.5 50.5t-30 28t-51.5 12t-73 2.5h-121z" />
<glyph unicode="C" horiz-adv-x="644" d="M604 55q-54 -52 -118 -72t-137 -20q-65 0 -118 19.5t-91 59.5t-59 99t-21 139v109q0 79 21 138t59.5 99t91.5 60t117 20q75 0 131 -18.5t107 -58.5l-51 -81q-49 40 -93.5 53t-93.5 13q-41 0 -75.5 -14t-60 -43t-39.5 -74t-14 -107v-83q0 -62 14 -107t39.5 -74t60 -43 t75.5 -14q52 0 104 16t97 60z" />
<glyph unicode="D" horiz-adv-x="688" d="M321 695q149 0 226 -79.5t77 -229.5v-103q0 -150 -75 -229.5t-228 -79.5h-239v721h239zM181 62h131q48 0 87 12.5t66.5 39.5t42.5 70t15 104v93q0 61 -15 104t-42.5 70.5t-66.5 40t-87 12.5h-131v-546z" />
<glyph unicode="E" horiz-adv-x="598" d="M531 695v-85h-350v-224h329v-85h-329v-242h357v-85h-456v721h449z" />
<glyph unicode="F" horiz-adv-x="568" d="M528 695v-85h-347v-241h326v-85h-326v-310h-99v721h446z" />
<glyph unicode="G" horiz-adv-x="671" d="M613 28q-48 -33 -112.5 -49t-132.5 -16q-72 0 -129 19.5t-96.5 59.5t-61 99t-21.5 139v109q0 79 21 138t60 99t94.5 60t124.5 20q70 0 129 -18t110 -58l-51 -80q-47 37 -92 51.5t-96 14.5q-94 0 -147.5 -57.5t-53.5 -182.5v-83q0 -125 57.5 -182.5t154.5 -57.5 q41 0 77.5 7.5t65.5 21.5v203h-160v85h259v-342z" />
<glyph unicode="H" horiz-adv-x="697" d="M615 695v-721h-99v332h-335v-332h-99v721h99v-301h335v301h99z" />
<glyph unicode="I" horiz-adv-x="263" d="M181 695v-721h-99v721h99z" />
<glyph unicode="J" horiz-adv-x="472" d="M392 172q0 -60 -16 -100t-44 -64.5t-66 -34.5t-83 -10q-39 0 -85.5 14t-81.5 45l47 78q32 -25 60 -35t63 -10q56 0 81.5 31.5t25.5 106.5v502h99v-523z" />
<glyph unicode="K" horiz-adv-x="655" d="M328 383l307 -409h-126l-249 337l-79 -85v-252h-99v721h99v-345l316 345h121z" />
<glyph unicode="L" horiz-adv-x="546" d="M181 695v-636h345v-85h-444v721h99z" />
<glyph unicode="M" horiz-adv-x="850" d="M213 494q-5 11 -9 21.5t-8 21.5t-9 25t-11 32v-620h-94v721h146l200 -472l195 472h145v-721h-95v620q-5 -20 -9.5 -33.5t-8 -24.5t-7.5 -21t-9 -21l-172 -400h-84z" />
<glyph unicode="N" horiz-adv-x="701" d="M196 695l280 -486q11 -18 24.5 -45.5t26.5 -59.5v591h92v-721h-114l-280 484q-11 20 -24.5 47t-26.5 59v-590h-92v721h114z" />
<glyph unicode="O" horiz-adv-x="706" d="M353 -37q-65 0 -118.5 19.5t-92.5 59.5t-60.5 99t-21.5 139v109q0 79 21.5 138t60.5 99t93 60t118 20t118 -20t93 -60t60.5 -99t21.5 -138v-109q0 -80 -21.5 -139t-60.5 -99t-93 -59.5t-118 -19.5zM353 616q-42 0 -77.5 -13.5t-61 -42t-40 -74t-14.5 -108.5v-87 q0 -63 14.5 -108.5t40 -74t61 -42t77.5 -13.5t77.5 13.5t61 42t40 74t14.5 108.5v87q0 63 -14.5 108.5t-40 74t-61 42t-77.5 13.5z" />
<glyph unicode="P" horiz-adv-x="617" d="M82 695h258q61 0 106 -15.5t74.5 -43t44 -65.5t14.5 -82v-21q0 -44 -15.5 -82.5t-45.5 -67.5t-74.5 -46t-103.5 -17h-159v-281h-99v721zM181 609v-268h142q156 0 156 129v18q0 62 -37.5 91.5t-107.5 29.5h-153z" />
<glyph unicode="Q" horiz-adv-x="698" d="M349 -37q-65 0 -118 19.5t-91 59.5t-59 99t-21 139v109q0 79 21 138t59.5 99t91.5 60t117 20t117 -20t91.5 -60t59.5 -99t21 -138v-109q0 -72 -17 -127t-48 -94l85 -84l-59 -61l-90 89q-68 -40 -160 -40zM349 616q-41 0 -76 -13.5t-60 -42t-39 -74t-14 -108.5v-87 q0 -63 14 -108.5t39 -74t60 -42t76 -13.5q25 0 47.5 4.5t42.5 15.5l-90 90l59 61l93 -93q18 29 27.5 68t9.5 92v87q0 63 -14 108.5t-39 74t-59.5 42t-76.5 13.5z" />
<glyph unicode="R" horiz-adv-x="645" d="M181 -26h-99v721h261q55 0 98 -15t72 -41t44.5 -62t15.5 -79v-26q0 -61 -31.5 -108t-89.5 -70l143 -320h-107l-130 301h-16h-161v-301zM181 359h138q84 0 119.5 31.5t35.5 84.5v20q0 53 -35 84t-110 31h-148v-251z" />
<glyph unicode="S" horiz-adv-x="616" d="M312 53q77 0 115.5 31t38.5 74v16q0 24 -8 42t-27 32t-49 25.5t-74 20.5q-51 11 -95 25.5t-76 37t-50.5 56t-18.5 82.5v18q0 37 15 71.5t46 61.5t77.5 43.5t108.5 16.5q66 0 120 -16t100 -47l-47 -77q-40 27 -81 39t-91 12q-68 0 -108.5 -30t-40.5 -73v-16 q0 -25 11 -42.5t32 -30.5t52 -22.5t71 -18.5q67 -15 111.5 -34.5t71.5 -44.5t38.5 -56t11.5 -68v-18q0 -50 -19.5 -87t-53.5 -62.5t-81.5 -38t-102.5 -12.5q-77 0 -141.5 24.5t-109.5 60.5l50 81q20 -15 46 -29t53 -24.5t54.5 -16.5t50.5 -6z" />
<glyph unicode="T" horiz-adv-x="571" d="M236 -26v636h-220v85h539v-85h-220v-636h-99z" />
<glyph unicode="U" horiz-adv-x="684" d="M610 695v-432q0 -82 -18 -139t-52 -93t-84 -52t-114 -16t-114 16t-84 52t-52 93t-18 139v432h99v-420q0 -61 10 -103.5t31 -69t53 -38.5t75 -12t75 12t53 38.5t31 69t10 103.5v420h99z" />
<glyph unicode="V" horiz-adv-x="673" d="M128 695l209 -596l214 596h102l-272 -721h-93l-268 721h108z" />
<glyph unicode="W" horiz-adv-x="975" d="M947 695l-199 -721h-99l-160 589l-163 -589h-101l-197 721h104l148 -589l161 589h96l161 -589l150 589h99z" />
<glyph unicode="X" horiz-adv-x="655" d="M392 346l233 -372h-117l-183 309l-183 -309h-112l233 376l-218 345h118l170 -284l169 284h111z" />
<glyph unicode="Y" horiz-adv-x="625" d="M363 264v-290h-99v290l-248 431h110l189 -337l184 337h110z" />
<glyph unicode="Z" horiz-adv-x="613" d="M560 622l-414 -562h433v-86h-553v81l409 554h-385v86h510v-73z" />
<glyph unicode="[" horiz-adv-x="389" d="M349 -170h-264v936h264v-86h-166v-764h166v-86z" />
<glyph unicode="\" horiz-adv-x="959" d="M36 401h102l-72 294h99l64 -294h137l74 294h89l70 -294h133l63 294h95l-72 -294h105v-61h-120l-88 -366h-90l-86 366h-112l-90 -366h-94l-90 366h-117v61zM293 106l58 234h-109zM669 106l50 234h-106zM442 401h83l-40 174z" />
<glyph unicode="]" horiz-adv-x="389" d="M40 -84h166v764h-166v86h264v-936h-264v86z" />
<glyph unicode="^" horiz-adv-x="524" d="M384 401l-122 243l-122 -243h-94l171 323h91l170 -323h-94z" />
<glyph unicode="_" horiz-adv-x="500" d="M500 -140h-500v65h500v-65z" />
<glyph unicode="`" horiz-adv-x="610" d="M328 565l-136 148h116l109 -148h-89z" />
<glyph unicode="a" horiz-adv-x="558" d="M230 -34q-83 0 -131.5 41t-48.5 113v27q0 70 47 114t152 44h139v32q0 55 -26.5 81.5t-86.5 26.5q-48 0 -83.5 -15t-73.5 -40l-48 72q40 28 90 48.5t116 20.5q46 0 84 -11.5t65.5 -34t43 -55t15.5 -73.5v-383h-93v66h-1q-8 -15 -21.5 -27.5t-29.5 -21.5 q-22 -12 -47.5 -18.5t-61.5 -6.5zM388 223h-137q-57 0 -81.5 -22t-24.5 -61v-14q0 -40 28 -58t67 -18q36 0 62.5 8.5t48.5 25.5q20 15 28.5 34.5t8.5 50.5v54z" />
<glyph unicode="b" horiz-adv-x="596" d="M175 458q26 41 68.5 57t87.5 16q104 0 159 -60.5t55 -172.5v-97q0 -56 -16 -99.5t-44.5 -73.5t-68.5 -46t-88 -16q-62 0 -99 21.5t-55 50.5h-2v-64h-94v756h97v-272zM174 169q0 -21 10.5 -42.5t30 -38t45.5 -27t58 -10.5q62 0 96.5 43t34.5 121v67q0 78 -35 121t-96 43 q-30 0 -56 -10t-45.5 -28t-31 -43.5t-11.5 -57.5v-138z" />
<glyph unicode="c" horiz-adv-x="509" d="M286 531q68 0 111.5 -17t77.5 -43l-46 -73q-38 28 -70.5 37.5t-72.5 9.5q-27 0 -52 -9t-44 -28.5t-30.5 -49.5t-11.5 -72v-69q0 -44 11.5 -75.5t31 -51t45 -28.5t52.5 -9q54 0 89.5 14t64.5 36l47 -74q-29 -24 -78 -43.5t-124 -19.5q-114 0 -175.5 66t-61.5 184v69 q0 59 17 104.5t47.5 77t74 48t97.5 16.5z" />
<glyph unicode="d" horiz-adv-x="596" d="M423 42q-23 -42 -65.5 -59t-93.5 -17q-104 0 -158.5 60.5t-54.5 172.5v97q0 55 16 99t44.5 74t68.5 46t88 16q63 0 99.5 -21.5t53.5 -45.5v266h97v-756h-93v68h-2zM422 330q0 21 -10.5 42t-30 37.5t-46 26.5t-57.5 10q-62 0 -96.5 -43t-34.5 -121v-67q0 -78 35 -121 t96 -43q30 0 56 9.5t45.5 27.5t31 43.5t11.5 57.5v141z" />
<glyph unicode="e" horiz-adv-x="556" d="M285 448q-30 0 -55.5 -10.5t-44 -29t-29 -45t-10.5 -57.5v-14h274v18q0 63 -36 100.5t-99 37.5zM501 26q-36 -25 -86 -42.5t-125 -17.5q-51 0 -94.5 14.5t-76 45t-51 78.5t-18.5 114v62q0 62 17.5 109t49 78.5t74.5 47.5t94 16q105 0 167 -64t62 -181v-73h-368v-4 q0 -78 41 -118.5t107 -40.5q54 0 92.5 13t73.5 36z" />
<glyph unicode="f" horiz-adv-x="375" d="M112 438h-90v83h90v54q0 83 40.5 122t118.5 39q26 0 53.5 -4t44.5 -10l-15 -79q-36 10 -74 10q-14 0 -27 -3t-22.5 -11.5t-15.5 -24.5t-6 -43v-50h144v-83h-144v-464h-97v464z" />
<glyph unicode="g" horiz-adv-x="596" d="M518 -19q0 -230 -244 -230q-56 0 -102 16t-80 42l44 76q27 -20 63.5 -33t77.5 -13q71 0 107.5 34.5t36.5 107.5v67q-23 -39 -65 -55.5t-92 -16.5q-104 0 -158.5 60.5t-54.5 172.5v87q0 55 16 99t44.5 74t68.5 46t88 16q63 0 99.5 -21.5t53.5 -45.5v57h97v-540zM422 330 q0 21 -10.5 42t-30 37.5t-46 26.5t-57.5 10q-62 0 -96.5 -43t-34.5 -121v-57q0 -78 35 -121t96 -43q30 0 56 9.5t45.5 27.5t31 43.5t11.5 57.5v131z" />
<glyph unicode="h" horiz-adv-x="599" d="M529 -26h-97v340q0 69 -29 100t-90 31q-25 0 -49.5 -8.5t-44 -25t-32 -41.5t-12.5 -57v-339h-97v756h97v-275q25 37 65.5 56.5t96.5 19.5q40 0 75 -12t61 -36t41 -61t15 -86v-362z" />
<glyph unicode="i" horiz-adv-x="259" d="M178 521v-547h-97v547h97zM181 717v-106h-103v106h103z" />
<glyph unicode="j" horiz-adv-x="276" d="M198 717v-106h-103v106h103zM195 -88q0 -83 -40.5 -122t-118.5 -39q-26 0 -53.5 4t-44.5 10l15 79q36 -10 74 -10q14 0 27 3t22.5 11.5t15.5 24.5t6 43v605h97v-609z" />
<glyph unicode="k" horiz-adv-x="561" d="M318 302l229 -328h-122l-174 260l-76 -77v-183h-97v756h97v-455l234 246h125z" />
<glyph unicode="l" horiz-adv-x="253" d="M175 730v-756h-97v756h97z" />
<glyph unicode="m" horiz-adv-x="899" d="M829 -26h-97v328q0 141 -103 141q-23 0 -45.5 -7.5t-40.5 -23t-29.5 -40t-11.5 -57.5v-341h-97v328q0 141 -103 141q-23 0 -45.5 -7t-40.5 -22t-29.5 -38.5t-11.5 -55.5v-346h-97v547h96v-74h1q16 36 52.5 60t93.5 24q55 0 95.5 -23.5t61.5 -67.5q26 40 65.5 65.5 t104.5 25.5q85 0 133 -51.5t48 -146.5v-359z" />
<glyph unicode="n" horiz-adv-x="599" d="M529 -26h-97v340q0 69 -29 100t-90 31q-25 0 -49.5 -8.5t-44 -25t-32 -41.5t-12.5 -57v-339h-97v547h94v-69h1q25 38 66 58.5t98 20.5q40 0 75 -12t61 -36t41 -61t15 -86v-362z" />
<glyph unicode="o" horiz-adv-x="588" d="M294 531q113 0 178.5 -65t65.5 -184v-67q0 -119 -65.5 -184t-178.5 -65t-178.5 65t-65.5 184v67q0 120 65.5 184.5t178.5 64.5zM294 51q65 0 105.5 42.5t40.5 129.5v51q0 87 -40.5 129.5t-105.5 42.5t-105.5 -42.5t-40.5 -129.5v-51q0 -87 40.5 -129.5t105.5 -42.5z" />
<glyph unicode="p" horiz-adv-x="596" d="M172 453q24 42 67.5 60t92.5 18q104 0 158.5 -62t54.5 -171v-97q0 -57 -16 -100.5t-44.5 -73.5t-69 -45.5t-89.5 -15.5q-61 0 -97.5 22t-53.5 46v-274h-97v761h94v-68zM174 169q0 -21 10.5 -42.5t30 -38t45.5 -27t58 -10.5q62 0 96.5 43t34.5 121v67q0 78 -35 121t-96 43 q-30 0 -56 -10t-45.5 -28t-31 -43.5t-11.5 -57.5v-138z" />
<glyph unicode="q" horiz-adv-x="596" d="M421 -240v278q-23 -39 -65 -55.5t-92 -16.5q-104 0 -158.5 60.5t-54.5 172.5v97q0 55 16 99t44.5 74t68.5 46t88 16q63 0 99.5 -21.5t53.5 -45.5v57h97v-761h-97zM422 330q0 21 -10.5 42t-30 37.5t-46 26.5t-57.5 10q-62 0 -96.5 -43t-34.5 -121v-67q0 -78 35 -121 t96 -43q30 0 56 9.5t45.5 27.5t31 43.5t11.5 57.5v141z" />
<glyph unicode="r" horiz-adv-x="417" d="M376 426q-14 6 -30.5 9.5t-36.5 3.5q-27 0 -51.5 -10.5t-42.5 -30t-29 -46.5t-11 -59v-319h-97v547h94v-87h1q24 46 62.5 71.5t98.5 25.5q36 0 71 -11z" />
<glyph unicode="s" horiz-adv-x="498" d="M248 50q54 0 84 19t30 52v8q0 17 -5 29t-19 21t-38 16.5t-63 15.5q-45 9 -80 22t-59 31.5t-36.5 44.5t-12.5 62v12q0 28 12 55t37 47.5t63.5 33t91.5 12.5q56 0 104.5 -12.5t89.5 -41.5l-43 -73q-27 20 -64.5 32t-79.5 12q-61 0 -87.5 -18.5t-26.5 -47.5v-9 q0 -32 27 -47.5t91 -27.5q50 -9 87 -22t61 -32.5t36 -46.5t12 -65v-13q0 -32 -14.5 -60t-41.5 -48.5t-65.5 -32.5t-86.5 -12q-69 0 -125 18t-95 48l45 76q37 -25 79 -41.5t92 -16.5z" />
<glyph unicode="t" horiz-adv-x="389" d="M112 438h-90v83h90v138h97v-138h144v-83h-144v-311q0 -25 5 -40.5t14.5 -23.5t22.5 -11t28 -3q36 0 72 13l15 -78q-17 -7 -45 -12.5t-57 -5.5q-78 0 -115 39t-37 122v311z" />
<glyph unicode="u" horiz-adv-x="595" d="M70 521h97v-340q0 -69 28 -100t89 -31q25 0 49 8.5t43.5 25t31.5 41.5t12 57v339h97v-547h-94v69h-1q-25 -38 -65 -58.5t-97 -20.5q-40 0 -74.5 12t-60 36t-40.5 60.5t-15 86.5v362z" />
<glyph unicode="v" horiz-adv-x="516" d="M261 65l143 456h102l-185 -547h-124l-187 547h105l144 -456h2z" />
<glyph unicode="w" horiz-adv-x="765" d="M382 400l-110 -426h-114l-142 547h102l100 -446h2l116 446h98l115 -446h2l102 446h96l-140 -547h-114l-111 426h-2z" />
<glyph unicode="x" horiz-adv-x="525" d="M325 258l180 -284h-117l-127 220l-130 -220h-111l183 284l-174 263h117l121 -202l123 202h108z" />
<glyph unicode="y" horiz-adv-x="520" d="M264 84l144 437h102l-284 -773l-88 31l71 187l-199 555h105l145 -437h4z" />
<glyph unicode="z" horiz-adv-x="493" d="M448 446l-300 -388h315v-84h-438v70l304 392h-284v85h403v-75z" />
<glyph unicode="{" horiz-adv-x="449" d="M40 353q55 1 80.5 19t25.5 61v188q0 74 39.5 109.5t116.5 35.5h107v-86h-91q-43 0 -58.5 -17.5t-15.5 -68.5v-161q0 -18 -3 -37t-12 -36t-25.5 -30.5t-42.5 -19.5q25 -6 41.5 -18.5t25.5 -29.5t12.5 -36.5t3.5 -38.5v-192q0 -26 4 -41.5t12.5 -23.5t22.5 -11t35 -3h91 v-86h-107q-77 0 -116.5 32.5t-39.5 105.5v218q0 44 -25.5 62.5t-80.5 19.5v85z" />
<glyph unicode="|" horiz-adv-x="294" d="M194 -170h-94v935h94v-935z" />
<glyph unicode="}" horiz-adv-x="449" d="M409 268q-55 -1 -80.5 -19.5t-25.5 -62.5v-218q0 -73 -39.5 -105.5t-116.5 -32.5h-107v86h91q21 0 35 3t22.5 11t12.5 23.5t4 41.5v192q0 19 3.5 38.5t12.5 36.5t25 29.5t42 18.5q-26 6 -42.5 19.5t-25.5 30.5t-12 36t-3 37v161q0 51 -15.5 68.5t-58.5 17.5h-91v86h107 q77 0 116.5 -35.5t39.5 -109.5v-188q0 -43 25.5 -61t80.5 -19v-85z" />
<glyph unicode="~" horiz-adv-x="600" d="M394 232q-37 0 -62 14.5t-45.5 32.5t-38.5 32.5t-40 14.5q-15 0 -26.5 -10t-19 -24.5t-11.5 -31.5t-6 -31h-87q3 37 14.5 70t30.5 58t45 39t59 14q36 0 61.5 -14.5t45.5 -32.5t39 -32.5t42 -14.5q30 0 44.5 25.5t19.5 71.5h85q-6 -83 -44 -132t-106 -49z" />
<glyph unicode="&#x25fc;" horiz-adv-x="520" d="M0 520h520v-520h-520v520z" />
<glyph unicode="&#xac00;" d="M896 355h-142v-495h-99v922h99v-341h142v-86zM51 142q80 47 135.5 83.5t92 66.5t57.5 56.5t31 53.5t12.5 55.5t2.5 64.5v89h-313v85h411v-175q0 -46 -2.5 -82t-14 -68.5t-35 -64t-65.5 -67t-105.5 -78.5t-154.5 -98z" />
<glyph unicode="&#xac01;" d="M382 644h-294v84h391v-145q0 -58 -17 -100t-61 -79.5t-120 -76t-194 -88.5l-37 80q106 44 171 77.5t101 63.5t48 60.5t12 69.5v54zM177 197h583v-346h-99v261h-484v85zM891 480h-131v-235h-98v537h98v-216h131v-86z" />
<glyph unicode="&#xac04;" d="M382 639h-294v84h391v-162q0 -56 -16 -98t-59 -80.5t-119 -78.5t-196 -92l-39 80q107 47 172.5 81.5t101 64.5t47 60t11.5 68v73zM891 437h-131v-313h-98v658h98v-259h131v-86zM296 -44h489v-86h-588v303h99v-217z" />
<glyph unicode="&#xac07;" d="M762 214v-85h-467v-183h484v-85h-583v353h566zM382 644h-294v84h391v-141q0 -58 -17 -100t-61 -79.5t-120 -76t-194 -88.5l-37 80q106 44 171 77.5t101 63.5t48 60.5t12 69.5v50zM891 481h-131v-222h-98v523h98v-215h131v-86z" />
<glyph unicode="&#xac08;" d="M194 -146v251h469v88h-474v82h571v-250h-469v-89h495v-82h-592zM382 659h-294v83h391v-122q0 -59 -17.5 -101.5t-62.5 -78.5t-121.5 -70.5t-193.5 -78.5l-34 80q106 40 171 70.5t101 58t48 57t12 68.5v34zM891 511h-131v-190h-98v461h98v-185h131v-86z" />
<glyph unicode="&#xac09;" d="M143 -144v248h205v85h-208v80h303v-243h-205v-88h38q59 0 115 2.5t115 9.5l7 -82q-65 -8 -127 -10t-131 -2h-112zM382 659h-294v83h391v-122q0 -59 -17.5 -101.5t-62.5 -78.5t-121.5 -70.5t-193.5 -78.5l-34 80q106 40 171 70.5t101 58t48 57t12 68.5v34zM662 315v467h98 v-185h131v-86h-131v-196h-98zM665 -153v341h-176v81h271v-422h-95z" />
<glyph unicode="&#xac0a;" d="M477 -144v413h283v-413h-283zM134 -144v248h191v85h-194v80h288v-243h-191v-88h29q24 0 44.5 0.5t41 2t42.5 4t48 5.5l7 -82q-98 -12 -204 -12h-102zM382 659h-294v83h391v-122q0 -59 -17.5 -101.5t-62.5 -78.5t-121.5 -70.5t-193.5 -78.5l-34 80q106 40 171 70.5t101 58 t48 57t12 68.5v34zM662 315v467h98v-185h131v-86h-131v-196h-98zM667 189h-98v-253h98v253z" />
<glyph unicode="&#xac10;" d="M760 219v-358h-562v358h562zM382 644h-294v84h391v-140q0 -58 -17 -100t-61 -79.5t-120 -76t-194 -88.5l-37 80q106 44 171 77.5t101 63.5t48 60.5t12 69.5v49zM296 -55h366v190h-366v-190zM891 482h-131v-218h-98v518h98v-214h131v-86z" />
<glyph unicode="&#xac11;" d="M760 264v-404h-562v404h98v-117h366v117h98zM382 644h-294v84h391v-122q0 -59 -17.5 -101.5t-62.5 -78.5t-121.5 -71t-193.5 -79l-34 80q106 40 171 70.5t101 58.5t48 57.5t12 68.5v33zM891 497h-131v-188h-98v473h98v-199h131v-86zM662 -56v120h-366v-120h366z" />
<glyph unicode="&#xac12;" d="M379 239h93v-329q20 20 40.5 41.5t40.5 44.5q17 20 29 37t20 34.5t12 36t4 42.5v90h99v-90q0 -22 4 -41t12 -36.5t20.5 -35t29.5 -37.5q21 -24 40.5 -45t41.5 -41l-67 -65q-20 21 -37.5 41t-32.5 38q-45 53 -59 86q-13 -32 -61 -86q-16 -18 -34 -38t-38 -41l-64 61v-48 h-306v381h92v-107h121v107zM382 644h-294v84h391v-122q0 -59 -17.5 -101.5t-62.5 -78.5t-121.5 -71t-193.5 -79l-34 80q106 40 171 70.5t101 58.5t48 57.5t12 68.5v33zM891 497h-131v-210h-98v495h98v-199h131v-86zM379 -62v114h-121v-114h121z" />
<glyph unicode="&#xac13;" d="M382 640h-294v84h391v-160q0 -56 -16 -98t-59 -80.5t-119 -78.5t-196 -92l-39 80q107 47 172.5 81.5t101 64.5t47 60t11.5 68v71zM425 239h98v-92q0 -21 3 -36.5t12.5 -29t26 -25.5t43.5 -27q33 -18 83 -41t125 -54l-40 -79q-66 28 -114.5 52.5t-82.5 41.5 q-48 25 -71.5 42t-32.5 31q-9 -16 -31.5 -33.5t-74.5 -43.5q-33 -17 -81 -40t-114 -51l-42 80q74 30 125 53t84 42q26 15 42.5 28t25.5 26.5t12.5 28.5t3.5 35v92zM891 473h-131v-283h-98v592h98v-223h131v-86z" />
<glyph unicode="&#xac14;" d="M708 229v-86q0 -20 1.5 -34t6 -26t14 -24t24.5 -26q26 -24 59 -52t72 -57l-54 -68q-36 27 -70.5 56.5t-54.5 46.5q-20 18 -30.5 31t-15.5 21q-5 -9 -13.5 -21t-25.5 -29q-25 -24 -57.5 -52t-66.5 -54q-34 26 -66.5 54t-57.5 52q-17 17 -25.5 29t-13.5 21q-5 -8 -15.5 -21 t-30.5 -31q-20 -17 -54.5 -46.5t-70.5 -56.5l-54 68q39 29 72 57t59 52q15 14 24.5 26t14 24t6 26t1.5 34v86h96v-86q0 -21 1.5 -35.5t5.5 -26.5t12 -23.5t22 -26.5q14 -16 32 -32t42 -37q24 21 42 37t32 32q13 15 21.5 26.5t12.5 23.5t5.5 26.5t1.5 35.5v86h96zM382 645 h-294v84h391v-141q0 -58 -17 -100.5t-61 -80t-120 -75.5t-194 -86l-37 80q106 43 171 76t101 62.5t48 60t12 69.5v51zM662 280v502h98v-201h131v-86h-131v-215h-98z" />
<glyph unicode="&#xac15;" d="M208 50q0 36 19 68t55 56t87.5 38t116.5 14t116.5 -14t87.5 -38t55 -56t19 -68v-40q0 -36 -19 -68t-55 -56t-87.5 -38t-116.5 -14t-116.5 14t-87.5 38t-55 56t-19 68v40zM382 641h-294v84h391v-145q0 -58 -17 -100t-61 -79.5t-120 -76t-194 -88.5l-37 80q106 44 171 77.5 t101 63.5t48 60.5t12 69.5v54zM667 44q0 18 -12.5 36.5t-36 32.5t-57 23t-75.5 9t-75.5 -9t-57 -23t-36 -32.5t-12.5 -36.5v-28q0 -18 12.5 -36.5t36 -32.5t57 -23t75.5 -9t75.5 9t57 23t36 32.5t12.5 36.5v28zM891 486h-131v-248h-98v544h98v-210h131v-86z" />
<glyph unicode="&#xac16;" d="M774 223v-83h-243v-4q0 -18 3.5 -33t13 -28t26 -25.5t42.5 -25.5q19 -9 38.5 -19t43.5 -20.5t52.5 -23t65.5 -27.5l-37 -79q-66 28 -112 49.5t-80 38.5q-48 25 -71.5 43.5t-32.5 32.5q-9 -16 -31.5 -34t-74.5 -44q-33 -17 -78.5 -38t-111.5 -49l-38 80q73 29 120 51.5 t80 39.5q50 27 67 52t17 59v4h-247v83h588zM382 644h-294v84h391v-137q0 -58 -17 -100.5t-61 -80t-120 -75.5t-194 -86l-37 80q106 43 171 76t101 62.5t48 60t12 69.5v47zM891 492h-131v-222h-98v512h98v-204h131v-86z" />
<glyph unicode="&#xac17;" d="M776 192v-82h-246q2 -31 19 -52.5t65 -42.5q23 -10 44 -19.5t44.5 -19t50 -19.5t61.5 -22l-36 -80q-57 21 -103.5 40.5t-88.5 37.5q-82 36 -105 73q-24 -38 -106 -74q-42 -18 -88.5 -37.5t-103.5 -40.5l-37 80q34 12 61.5 22.5t51.5 20.5t45.5 19t42.5 19 q46 21 63.5 42.5t19.5 52.5h-246v82h247v97h99v-97h246zM382 649h-294v84h391v-137q0 -58 -17 -100.5t-61 -80t-120 -75.5t-194 -86l-37 80q106 43 171 76t101 62.5t48 60t12 69.5v47zM891 503h-131v-229h-98v508h98v-193h131v-86z" />
<glyph unicode="&#xac19;" d="M761 254v-83h-467v-76h458v-81h-458v-77h483v-83h-582v400h566zM382 658h-294v84h391v-122q0 -59 -17.5 -101.5t-62.5 -78.5t-121.5 -71t-193.5 -79l-34 80q106 40 171 70.5t101 58.5t48 57.5t12 68.5v33zM891 507h-131v-207h-98v482h98v-189h131v-86z" />
<glyph unicode="&#xac1a;" d="M177 -59h106v204h-103v80h594v-80h-100v-204h104v-80h-601v80zM382 644h-294v84h391v-137q0 -58 -17 -100.5t-61 -80t-120 -75.5t-194 -86l-37 80q106 43 171 76t101 62.5t48 60t12 69.5v47zM662 270v512h98v-207h131v-86h-131v-219h-98zM380 -59h197v204h-197v-204z" />
<glyph unicode="&#xac1b;" d="M237 -8q0 28 18 51.5t50 40t76 25.5t97 9q52 0 96.5 -9t76.5 -25.5t50 -40t18 -51.5v-32q0 -29 -18 -52t-50 -39.5t-76.5 -25.5t-96.5 -9q-53 0 -97 9t-76 25.5t-50 39.5t-18 52v32zM382 658h-294v84h391v-122q0 -59 -17.5 -101t-62.5 -78.5t-121.5 -71.5t-193.5 -79 l-34 80q106 40 171 70.5t101 58.5t48 57.5t12 68.5v33zM176 235h253v95h98v-95h253v-81h-604v81zM891 509h-131v-200h-98v473h98v-187h131v-86zM332 -32q0 -26 39.5 -42.5t106.5 -16.5t106.5 16.5t39.5 42.5v16q0 26 -39.5 42.5t-106.5 16.5t-106.5 -16.5t-39.5 -42.5v-16z " />
<glyph unicode="&#xac1c;" d="M833 -140h-97v514h-111v-469h-97v858h97v-303h111v322h97v-922zM321 607h-256v85h353v-188q0 -45 -4 -82t-15.5 -70.5t-33.5 -65.5t-58 -66.5t-88.5 -74.5t-124.5 -88l-55 77q70 45 118.5 82t80 68.5t48.5 60t24.5 56t9 57t1.5 63.5v86z" />
<glyph unicode="&#xac1d;" d="M721 782h95v-540h-95v241h-112v-239h-94v526h94v-202h112v214zM211 194h605v-343h-99v258h-506v85zM43 316q92 43 146 74.5t82.5 60.5t36.5 60t8 72v57h-241v84h335v-150q0 -61 -13 -103t-48.5 -77.5t-99 -71t-164.5 -83.5z" />
<glyph unicode="&#xac20;" d="M721 782h95v-655h-95v332h-112v-310h-94v621h94v-227h112v239zM42 290q95 48 150 82.5t82.5 64.5t34.5 59.5t7 67.5v71h-241v84h335v-160q0 -54 -11.5 -95t-46 -78.5t-98.5 -77.5t-169 -94zM323 -44h510v-86h-609v304h99v-218z" />
<glyph unicode="&#xac24;" d="M228 -146v251h492v87h-497v82h593v-249h-492v-89h515v-82h-611zM721 782h95v-461h-95v200h-112v-198h-94v447h94v-165h112v177zM44 371q95 39 149.5 67.5t81.5 55t34 54.5t7 66v40h-241v83h335v-129q0 -56 -11.5 -96t-47 -74.5t-100 -68t-169.5 -76.5z" />
<glyph unicode="&#xac2c;" d="M816 213v-352h-578v352h578zM721 782h95v-521h-95v230h-112v-228h-94v507h94v-194h112v206zM43 321q92 43 146 74.5t82.5 60.5t36.5 60t8 72v52h-241v84h335v-145q0 -61 -13 -103t-48.5 -77.5t-99 -71t-164.5 -83.5zM336 -55h382v184h-382v-184z" />
<glyph unicode="&#xac2d;" d="M816 262v-402h-578v402h98v-116h382v116h98zM721 782h95v-474h-95v200h-112v-198h-94v460h94v-177h112v189zM44 357q95 39 149.5 67.5t81.5 55t34 54.5t7 66v40h-241v84h335v-130q0 -56 -11.5 -96t-47 -74.5t-100 -68t-169.5 -76.5zM718 -56v119h-382v-119h382z" />
<glyph unicode="&#xac2f;" d="M721 782h95v-589h-95v294h-112v-204h-94v487h94v-199h112v211zM450 233h50h48v-89q0 -21 3 -36.5t12.5 -29t26 -25.5t43.5 -27q33 -18 83 -41t125 -54l-40 -79q-66 28 -114.5 52.5t-82.5 41.5q-48 25 -71.5 42t-32.5 31q-9 -16 -31.5 -33.5t-74.5 -43.5q-33 -17 -81 -40 t-114 -51l-42 80q74 30 125 53t84 42q26 15 42.5 28t25.5 26.5t12.5 28.5t3.5 35v89zM42 302q95 48 150 83.5t82.5 66t34.5 60.5t7 68v55h-241v84h335v-148q0 -54 -10 -95t-43.5 -78.5t-98 -77.5t-173.5 -94z" />
<glyph unicode="&#xac30;" d="M708 238v-95q0 -20 1.5 -34t6 -26t14 -24t24.5 -26q26 -24 59 -52t72 -57l-54 -68q-36 27 -70.5 56.5t-54.5 46.5q-20 18 -30.5 31t-15.5 21q-5 -9 -13.5 -21t-25.5 -29q-25 -24 -57.5 -52t-66.5 -54q-34 26 -66.5 54t-57.5 52q-17 17 -25.5 29t-13.5 21q-5 -8 -15.5 -21 t-30.5 -31q-20 -17 -54.5 -46.5t-70.5 -56.5l-54 68q39 29 72 57t59 52q15 14 24.5 26t14 24t6 26t1.5 34v95h96v-95q0 -21 1.5 -35.5t5.5 -26.5t12 -23.5t22 -26.5q14 -16 32 -32t42 -37q24 21 42 37t32 32q13 15 21.5 26.5t12.5 23.5t5.5 26.5t1.5 35.5v95h96zM721 782h95 v-504h-95v222h-112v-208h-94v478h94v-185h112v197zM43 321q92 43 146 74.5t82.5 60.5t36.5 60t8 72v52h-241v84h335v-145q0 -61 -13 -103t-48.5 -77.5t-99 -71t-164.5 -83.5z" />
<glyph unicode="&#xac31;" d="M246 45q0 37 20 68t57.5 54t91 36t119.5 13t119 -13t90.5 -36t58 -54.5t20.5 -67.5v-40q0 -36 -20.5 -67.5t-58 -54.5t-90.5 -36t-119 -13t-119.5 13t-91 36t-57.5 54t-20 68v40zM721 782h95v-554h-95v260h-112v-221h-94v503h94v-197h112v209zM42 304q95 48 150 82.5 t82.5 64.5t34.5 59.5t7 67.5v59h-241v84h335v-148q0 -54 -10 -95t-43.5 -78.5t-98 -77.5t-173.5 -94zM725 39q0 18 -14 35.5t-39 31t-60.5 21.5t-77.5 8t-77.5 -8t-60.5 -21.5t-39 -31t-14 -35.5v-27q0 -19 14 -36.5t39 -31t60.5 -21.5t77.5 -8t77.5 8t60.5 21.5t39 31 t14 35.5v28z" />
<glyph unicode="&#xac38;" d="M896 490h-142v-171h142v-86h-142v-373h-99v922h99v-206h142v-86zM51 142q80 47 135.5 83.5t92 66.5t57.5 56.5t31 53.5t12.5 55.5t2.5 64.5v89h-313v85h411v-175q0 -46 -2.5 -82t-14 -68.5t-35 -64t-65.5 -67t-105.5 -78.5t-154.5 -98z" />
<glyph unicode="&#xac39;" d="M372 644h-294v84h391v-145q0 -58 -17 -100t-61 -79.5t-120 -76t-194 -88.5l-37 80q106 44 171 77.5t101 63.5t48 60.5t12 69.5v54zM167 197h583v-346h-99v261h-484v85zM880 572h-130v-104h130v-85h-130v-138h-97v537h97v-125h130v-85z" />
<glyph unicode="&#xac3c;" d="M372 639h-294v84h391v-162q0 -56 -16 -98t-59 -80.5t-119 -78.5t-196 -92l-39 80q107 47 172.5 81.5t101 64.5t47 60t11.5 68v73zM880 535h-130v-118h130v-85h-130v-208h-97v658h97v-162h130v-85zM286 -44h489v-86h-588v304h99v-218z" />
<glyph unicode="&#xac40;" d="M184 -146v251h469v88h-474v82h571v-250h-469v-89h495v-82h-592zM372 659h-294v83h391v-122q0 -59 -17.5 -101.5t-62.5 -78.5t-121.5 -70.5t-193.5 -78.5l-34 80q106 40 171 70.5t101 58t48 57t12 68.5v34zM880 588h-130v-76h130v-85h-130v-106h-97v461h97v-109h130v-85z " />
<glyph unicode="&#xac4b;" d="M372 640h-294v84h391v-160q0 -56 -16 -98t-59 -80.5t-119 -78.5t-196 -92l-39 80q107 47 172.5 81.5t101 64.5t47 60t11.5 68v71zM880 563h-130v-102h130v-85h-130v-188h-97v594h97v-134h130v-85zM415 237h50h48v-90q0 -21 3 -36.5t12.5 -29t26 -25.5t43.5 -27 q33 -18 83 -41t125 -54l-40 -79q-66 28 -114.5 52.5t-82.5 41.5q-48 25 -71.5 42t-32.5 31q-9 -16 -31.5 -33.5t-74.5 -43.5q-33 -17 -81 -40t-114 -51l-42 80q74 30 125 53t84 42q26 15 42.5 28t25.5 26.5t12.5 28.5t3.5 35v90z" />
<glyph unicode="&#xac4d;" d="M198 50q0 36 19 68t55 56t87.5 38t116.5 14t116.5 -14t87.5 -38t55 -56t19 -68v-40q0 -36 -19 -68t-55 -56t-87.5 -38t-116.5 -14t-116.5 14t-87.5 38t-55 56t-19 68v40zM372 641h-294v84h391v-145q0 -58 -17 -100t-61 -79.5t-120 -76t-194 -88.5l-37 80q106 44 171 77.5 t101 63.5t48 60.5t12 69.5v54zM880 572h-130v-104h130v-85h-130v-145h-97v544h97v-125h130v-85zM657 44q0 18 -12.5 36.5t-36 32.5t-57 23t-75.5 9t-75.5 -9t-57 -23t-36 -32.5t-12.5 -36.5v-28q0 -18 12.5 -36.5t36 -32.5t57 -23t75.5 -9t75.5 9t57 23t36 32.5t12.5 36.5 v28z" />
<glyph unicode="&#xac54;" d="M833 -140h-97v365h-113v-320h-97v858h97v-186h113v205h97v-922zM321 607h-256v85h353v-188q0 -45 -4 -82t-15.5 -70.5t-33.5 -65.5t-58 -66.5t-88.5 -74.5t-124.5 -88l-55 77q70 45 118.5 82t80 68.5t48.5 60t24.5 56t9 57t1.5 63.5v86zM623 311h113v180h-113v-180z" />
<glyph unicode="&#xac58;" d="M607 149h-94v621h94v-132h114v144h95v-655h-95v228h-114v-206zM42 290q95 48 149.5 82.5t81.5 64.5t34 59.5t7 67.5v71h-239v84h335v-160q0 -54 -11.5 -95t-46 -78.5t-98.5 -77.5t-169 -94zM323 -44h510v-86h-609v304h99v-218zM607 438h114v117h-114v-117z" />
<glyph unicode="&#xac5c;" d="M228 -146v251h492v87h-497v82h593v-249h-492v-89h515v-82h-611zM721 782h95v-461h-95v105h-114v-103h-94v447h94v-101h114v113zM44 371q95 39 149 67.5t81 55t33.5 54.5t6.5 66v40h-239v83h335v-129q0 -56 -11.5 -96t-47 -74.5t-100 -68t-169.5 -76.5zM607 508h114v79 h-114v-79z" />
<glyph unicode="&#xac70;" d="M700 -140v513h-222q-11 -33 -34.5 -65t-66 -68t-106.5 -79t-156 -99l-52 79q80 47 135.5 83.5t92.5 67t58.5 57t32 53t13 55.5t2.5 65v89h-317v85h415v-175q0 -17 -0.5 -32t-1.5 -29h207v322h99v-922h-99z" />
<glyph unicode="&#xac71;" d="M704 245v228h-232q-15 -31 -43.5 -58t-73 -54.5t-107.5 -57t-148 -65.5l-37 80q106 44 171.5 77.5t101.5 63.5t48.5 61t12.5 70v54h-296v84h393v-145v-13t-1 -12h211v224h98v-537h-98zM195 197h607v-346h-99v261h-508v85z" />
<glyph unicode="&#xac74;" d="M704 124v329h-231q-14 -31 -41.5 -58.5t-71.5 -56t-107.5 -59.5t-150.5 -68l-39 80q107 47 172.5 81.5t101.5 65t48 60.5t12 68v73h-296v84h393v-162v-12t-1 -11h211v244h98v-658h-98zM325 -44h496v-86h-595v303h99v-217z" />
<glyph unicode="&#xac77;" d="M704 258v215h-234q-16 -30 -44.5 -56.5t-73 -53.5t-106.5 -56.5t-146 -64.5l-37 80q106 44 171.5 77.5t101.5 63.5t48.5 61t12.5 70v50h-296v84h393v-141q0 -8 -0.5 -15t-0.5 -14h211v224h98v-524h-98zM802 213v-85h-476v-182h493v-85h-592v352h575z" />
<glyph unicode="&#xac78;" d="M231 -146v250h474v87h-479v82h576v-249h-474v-88h500v-82h-597zM704 319v187h-234q-16 -30 -45 -56t-74 -51.5t-107.5 -52t-146.5 -57.5l-34 80q106 40 171.5 70.5t101.5 59t48.5 58t12.5 68.5v34h-296v83h393v-122v-15.5t-1 -14.5h211v192h98v-463h-98z" />
<glyph unicode="&#xac7a;" d="M704 315v191h-234q-16 -30 -45 -56t-74 -51.5t-107.5 -52t-146.5 -57.5l-34 80q106 40 171.5 70.5t101.5 59t48.5 58t12.5 68.5v34h-296v83h393v-122v-15.5t-1 -14.5h211v192h98v-467h-98zM511 -144v413h291v-413h-291zM162 -144v248h197v85h-200v80h294v-243h-197v-88 h35q24 0 44.5 0.5t41 2t42.5 4t48 5.5l7 -82q-98 -12 -204 -12h-108zM709 189h-106v-253h106v253z" />
<glyph unicode="&#xac80;" d="M802 219v-358h-575v358h575zM704 264v214h-232q-15 -31 -43 -58.5t-73 -55t-108 -57t-148 -65.5l-37 80q106 44 171.5 77.5t101.5 63.5t48.5 61t12.5 70v50h-296v84h393v-141v-12.5t-1 -11.5h211v219h98v-518h-98zM325 -55h379v190h-379v-190z" />
<glyph unicode="&#xac81;" d="M802 264v-404h-575v404h98v-117h379v117h98zM704 309v171h-241q-18 -28 -47.5 -52.5t-73.5 -48.5t-105 -49t-140 -55l-34 80q106 40 171.5 70.5t101.5 59t48.5 58t12.5 68.5v33h-296v84h393v-122q0 -23 -3 -42h213v218h98v-473h-98zM704 -56v120h-379v-120h379z" />
<glyph unicode="&#xac83;" d="M704 190v272h-228q-14 -32 -41 -60.5t-71 -57.5t-108.5 -60.5t-153.5 -69.5l-39 80q105 46 170.5 80t101.5 64.5t49 61t13 69.5v71h-296v84h393v-160q0 -5 -0.5 -9t-0.5 -8h211v235h98v-592h-98zM458 239h98v-92q0 -21 3 -36.5t12.5 -29t26 -25.5t43.5 -27q33 -18 83 -41 t125 -54l-40 -79q-66 28 -114.5 52.5t-82.5 41.5q-48 25 -71.5 42t-32.5 31q-9 -16 -31.5 -33.5t-74.5 -43.5q-33 -17 -81 -40t-114 -51l-42 80q74 30 125 53t84 42q26 15 42.5 28t25.5 26.5t12.5 28.5t3.5 35v92z" />
<glyph unicode="&#xac84;" d="M704 280v203h-230q-15 -32 -42.5 -60t-72.5 -55.5t-108.5 -57t-150.5 -65.5l-37 80q106 43 171.5 76t101.5 63t48.5 60.5t12.5 69.5v51h-296v84h393v-141v-10t-1 -10h211v214h98v-502h-98zM714 227v-84q0 -20 1.5 -34t6 -26t14 -24t24.5 -26q26 -24 59 -52t72 -57 l-54 -68q-36 27 -70.5 56.5t-54.5 46.5q-20 18 -30.5 31t-15.5 21q-5 -9 -13.5 -21t-25.5 -29q-25 -24 -57.5 -52t-66.5 -54q-34 26 -66.5 54t-57.5 52q-17 17 -25.5 29t-13.5 21q-5 -8 -15.5 -21t-30.5 -31q-20 -17 -54.5 -46.5t-70.5 -56.5l-54 68q39 29 72 57t59 52 q15 14 24.5 26t14 24t6 26t1.5 34v84h96v-84q0 -21 1.5 -35.5t5.5 -26.5t12 -23.5t22 -26.5q14 -16 32 -32t42 -37q24 21 42 37t32 32q13 15 21.5 26.5t12.5 23.5t5.5 26.5t1.5 35.5v84h96z" />
<glyph unicode="&#xac85;" d="M240 50q0 36 19.5 68t56 56t89 38t118.5 14t118.5 -14t89 -38t56 -56t19.5 -68v-40q0 -36 -19.5 -68t-56 -56t-89 -38t-118.5 -14t-118.5 14t-89 38t-56 56t-19.5 68v40zM704 238v235h-231q-15 -32 -42.5 -59t-72.5 -55t-108.5 -58t-149.5 -66l-37 80q106 44 171.5 77.5 t101.5 63.5t48.5 61t12.5 70v54h-296v84h393v-145v-11.5t-1 -10.5h211v224h98v-544h-98zM709 44q0 18 -13 36.5t-37 32.5t-58.5 23t-77.5 9t-77.5 -9t-58.5 -23t-37 -32.5t-13 -36.5v-28q0 -18 13 -36.5t37 -32.5t58.5 -23t77.5 -9t77.5 9t58.5 23t37 32.5t13 36.5v28z" />
<glyph unicode="&#xac86;" d="M704 270v210h-232q-15 -31 -43.5 -58t-73 -54t-107.5 -56t-148 -64l-37 80q104 42 169 74.5t102 62.5t50 61t13 71v47h-296v84h393v-137q0 -7 -0.5 -13.5t-0.5 -12.5h211v217h98v-512h-98zM806 223v-83h-248v-4q0 -18 3.5 -33t13 -28t26 -25.5t42.5 -25.5q19 -9 39.5 -19 t45 -20.5t54 -23t66.5 -27.5l-37 -79q-66 28 -114.5 49.5t-82.5 38.5q-48 25 -71.5 43.5t-32.5 32.5q-9 -16 -31.5 -34t-74.5 -44q-33 -17 -81 -38t-114 -49l-38 80q73 29 122.5 51.5t82.5 39.5q50 27 67 52t17 59v4h-252v83h598z" />
<glyph unicode="&#xac89;" d="M804 254v-83h-478v-76h469v-81h-469v-77h494v-83h-593v400h577zM704 300v206h-234q-16 -30 -45 -56t-74 -51.5t-107.5 -52t-146.5 -57.5l-34 80q106 40 171.5 70.5t101.5 59t48.5 58t12.5 68.5v33h-296v84h393v-122v-15.5t-1 -14.5h211v192h98v-482h-98z" />
<glyph unicode="&#xac8a;" d="M197 -57h111v204h-106v81h607v-81h-106v-204h111v-81h-617v81zM704 273v205h-234q-15 -30 -43.5 -57t-73 -54t-107 -56t-146.5 -63l-37 80q106 43 171.5 76t101.5 63t48.5 60.5t12.5 69.5v47h-296v84h393v-137q0 -8 -0.5 -14.5t-0.5 -13.5h211v219h98v-509h-98zM404 -57 h203v204h-203v-204z" />
<glyph unicode="&#xac8b;" d="M704 309v197h-234q-16 -30 -45 -56t-74 -51.5t-107.5 -52t-146.5 -57.5l-34 80q106 40 171.5 70.5t101.5 59t48.5 58t12.5 68.5v33h-296v84h393v-122v-15.5t-1 -14.5h211v192h98v-473h-98zM272 -8q0 28 18.5 51.5t51 40t77 25.5t97.5 9q52 0 97 -9t77.5 -25.5t51 -40 t18.5 -51.5v-32q0 -29 -18.5 -52t-51 -39.5t-77.5 -25.5t-97 -9q-53 0 -97.5 9t-77 25.5t-51 39.5t-18.5 52v32zM210 235h257v95h98v-95h257v-81h-612v81zM367 -32q0 -26 41 -42.5t108 -16.5t108 16.5t41 42.5v16q0 26 -41 42.5t-108 16.5t-108 -16.5t-41 -42.5v-16z" />
<glyph unicode="&#xac8c;" d="M321 607h-256v85h353v-188q0 -17 -0.5 -32t-1.5 -29h128v320h97v-858h-97v452h-144q-12 -35 -33.5 -67.5t-57.5 -67.5t-88.5 -75.5t-126.5 -89.5l-55 77q70 45 118.5 82t80 68.5t48.5 60t24.5 56t9 57t1.5 63.5v86zM833 -140h-97v922h97v-922z" />
<glyph unicode="&#xac90;" d="M42 289q95 48 150 82.5t82.5 64.5t34.5 59.5t7 67.5v72h-241v84h335v-161v-15h131v227h94v-621h-94v310h-144q-10 -31 -31 -58.5t-57.5 -56t-91 -60.5t-132.5 -71zM323 -44h510v-86h-609v305h99v-219zM721 782h95v-655h-95v655z" />
<glyph unicode="&#xac94;" d="M228 -146v251h492v87h-497v82h593v-249h-492v-89h515v-82h-611zM44 370q95 39 149.5 67.5t81.5 55t34 54.5t7 66v41h-241v83h335v-130v-10h131v173h94v-447h-94v190h-142q-10 -32 -31 -58t-58 -51.5t-93 -52.5t-135 -59zM721 782h95v-461h-95v461z" />
<glyph unicode="&#xac9c;" d="M816 213v-352h-578v352h578zM43 320q92 43 146 74.5t82.5 60.5t36.5 60t8 72v53h-241v84h335v-146v-2h131v194h94v-507h-94v228h-140q-9 -36 -29.5 -65.5t-57.5 -57t-93 -57.5t-136 -68zM336 -55h382v184h-382v-184zM721 782h95v-521h-95v521z" />
<glyph unicode="&#xac9d;" d="M816 262v-402h-578v402h98v-116h382v116h98zM44 356q95 39 149.5 67.5t81.5 55t34 54.5t7 66v41h-241v84h335v-131v-2h131v179h94v-460h-94v196h-140q-9 -33 -29.5 -60.5t-57.5 -53.5t-93.5 -53.5t-138.5 -60.5zM718 -56v119h-382v-119h382zM721 782h95v-474h-95v474z " />
<glyph unicode="&#xac9f;" d="M42 301q95 48 150 83.5t82.5 66t34.5 60.5t7 68v56h-241v84h335v-149h131v200h94v-487h-94v203h-138q-8 -34 -26.5 -63t-55 -59t-94 -63.5t-142.5 -75.5zM450 237h98v-93q0 -21 3 -36.5t12.5 -29t26 -25.5t43.5 -27q33 -18 83 -41t125 -54l-40 -79q-66 28 -114.5 52.5 t-82.5 41.5q-48 25 -71.5 42t-32.5 31q-9 -16 -31.5 -33.5t-74.5 -43.5q-33 -17 -81 -40t-114 -51l-42 80q74 30 125 53t84 42q26 15 42.5 28t25.5 26.5t12.5 28.5t3.5 35v93zM721 782h95v-589h-95v589z" />
<glyph unicode="&#xaca0;" d="M43 320q92 43 146 74.5t82.5 60.5t36.5 60t8 72v53h-241v84h335v-145h131v191h94v-478h-94v202h-139q-9 -37 -29 -66.5t-57 -58t-93.5 -58.5t-137.5 -68zM708 238v-95q0 -20 1.5 -34t6 -26t14 -24t24.5 -26q26 -24 59 -52t72 -57l-54 -68q-36 27 -70.5 56.5t-54.5 46.5 q-20 18 -30.5 31t-15.5 21q-5 -9 -13.5 -21t-25.5 -29q-25 -24 -57.5 -52t-66.5 -54q-34 26 -66.5 54t-57.5 52q-17 17 -25.5 29t-13.5 21q-5 -8 -15.5 -21t-30.5 -31q-20 -17 -54.5 -46.5t-70.5 -56.5l-54 68q39 29 72 57t59 52q15 14 24.5 26t14 24t6 26t1.5 34v95h96v-95 q0 -21 1.5 -35.5t5.5 -26.5t12 -23.5t22 -26.5q14 -16 32 -32t42 -37q24 21 42 37t32 32q13 15 21.5 26.5t12.5 23.5t5.5 26.5t1.5 35.5v95h96zM721 782h95v-504h-95v504z" />
<glyph unicode="&#xaca1;" d="M246 45q0 37 20 68t57.5 54t91 36t119.5 13t119 -13t90.5 -36t58 -54.5t20.5 -67.5v-40q0 -36 -20.5 -67.5t-58 -54.5t-90.5 -36t-119 -13t-119.5 13t-91 36t-57.5 54t-20 68v40zM42 304q95 48 150 82.5t82.5 64.5t34.5 59.5t7 67.5v59h-241v84h335v-148v-8h131v205h94 v-503h-94v213h-141q-8 -32 -27.5 -60t-56 -57.5t-93 -62t-138.5 -72.5zM725 39q0 18 -14 35.5t-39 31t-60.5 21.5t-77.5 8t-77.5 -8t-60.5 -21.5t-39 -31t-14 -35.5v-27q0 -19 14 -36.5t39 -31t60.5 -21.5t77.5 -8t77.5 8t60.5 21.5t39 31t14 35.5v28zM721 782h95v-554h-95 v554z" />
<glyph unicode="&#xaca8;" d="M700 -140v378h-200v87h200v157h-208q-1 -38 -6 -70t-19 -61.5t-39.5 -59t-67 -63.5t-102 -74.5t-144.5 -91.5l-52 79q80 47 136 84t93 67.5t58 57t31 53t12.5 55t2.5 64.5v89h-315v85h413v-127h207v213h99v-922h-99z" />
<glyph unicode="&#xaca9;" d="M394 644h-294v84h391v-145q0 -58 -17 -100t-60.5 -79.5t-119.5 -75.5t-194 -88l-38 79q106 44 171 77.5t101 63.5t48 60.5t12 69.5v54zM705 242v130h-178v85h178v105h-163v85h163v135h97v-540h-97zM195 194h607v-343h-99v258h-508v85z" />
<glyph unicode="&#xacaa;" d="M394 644h-294v84h391v-140q0 -58 -17 -100t-61 -79.5t-120 -76t-194 -88.5l-37 80q103 43 168 76t101.5 63t49.5 61t13 71v49zM705 252v129h-178v85h178v101h-163v85h163v130h97v-530h-97zM169 204h308v-353h-98v268h-210v85zM515 204h287v-353h-98v268h-189v85z" />
<glyph unicode="&#xacac;" d="M705 124v224h-178v85h178v123h-163v85h163v141h97v-658h-97zM394 639h-294v84h391v-162q0 -56 -16 -98t-59 -80.5t-119 -78.5t-196 -92l-39 80q107 47 172.5 81.5t101 64.5t47 60t11.5 68v73zM325 -44h496v-86h-595v303h99v-217z" />
<glyph unicode="&#xacaf;" d="M804 213v-85h-476v-182h493v-85h-592v352h575zM394 644h-294v84h391v-141q0 -57 -16.5 -99t-60 -79.5t-119.5 -76t-194 -88.5l-39 79q103 43 168 76t101.5 63t49.5 61t13 71v50zM705 258v116h-178v85h178v103h-163v85h163v135h97v-524h-97z" />
<glyph unicode="&#xacb0;" d="M231 -146v249h474v86h-479v82h576v-248h-474v-87h500v-82h-597zM394 659h-294v83h391v-122q0 -59 -17.5 -101.5t-62.5 -78.5t-121.5 -70.5t-193.5 -78.5l-34 80q71 27 123 49t89 41.5t60.5 37.5t36.5 37.5t18 41t5 47.5v34zM705 317v102h-178v83h178v91h-163v83h163v106 h97v-465h-97z" />
<glyph unicode="&#xacb8;" d="M802 219v-358h-575v358h575zM394 644h-294v84h391v-140q0 -58 -17 -100t-61 -79.5t-120 -76t-194 -88.5l-37 80q103 43 168 76t101.5 63t49.5 61t13 71v49zM705 264v121h-178v85h178v100h-163v85h163v127h97v-518h-97zM325 -55h379v190h-379v-190z" />
<glyph unicode="&#xacb9;" d="M802 264v-404h-575v404h98v-117h379v117h98zM394 644h-294v84h391v-122q0 -59 -17.5 -101.5t-62.5 -78.5t-121.5 -71t-193.5 -79l-34 80q106 40 171 70.5t101 58.5t48 57.5t12 68.5v33zM705 309v88h-178v83h178v92h-163v83h163v127h97v-473h-97zM704 -56v120h-379v-120 h379z" />
<glyph unicode="&#xacbb;" d="M394 640h-294v84h391v-160q0 -56 -15.5 -97.5t-58.5 -80t-119 -79t-197 -92.5l-39 80q105 46 170 80t101 64t48.5 60.5t12.5 69.5v71zM705 189v166h-178v85h178v116h-163v85h163v141h97v-593h-97zM458 237h50h48v-90q0 -21 3 -36.5t12.5 -29t26 -25.5t43.5 -27 q33 -18 83 -41t125 -54l-40 -79q-66 28 -114.5 52.5t-82.5 41.5q-48 25 -71.5 42t-32.5 31q-9 -16 -31.5 -33.5t-74.5 -43.5q-33 -17 -81 -40t-114 -51l-42 80q74 30 125 53t84 42q26 15 42.5 28t25.5 26.5t12.5 28.5t3.5 35v90z" />
<glyph unicode="&#xacbc;" d="M714 227v-84q0 -20 1.5 -34t6 -26t14 -24t24.5 -26q26 -24 59 -52t72 -57l-54 -68q-36 27 -70.5 56.5t-54.5 46.5q-20 18 -30.5 31t-15.5 21q-5 -9 -13.5 -21t-25.5 -29q-25 -24 -57.5 -52t-66.5 -54q-34 26 -66.5 54t-57.5 52q-17 17 -25.5 29t-13.5 21q-5 -8 -15.5 -21 t-30.5 -31q-20 -17 -54.5 -46.5t-70.5 -56.5l-54 68q39 29 72 57t59 52q15 14 24.5 26t14 24t6 26t1.5 34v84h96v-84q0 -21 1.5 -35.5t5.5 -26.5t12 -23.5t22 -26.5q14 -16 32 -32t42 -37q24 21 42 37t32 32q13 15 21.5 26.5t12.5 23.5t5.5 26.5t1.5 35.5v84h96zM394 645 h-294v84h391v-141q0 -58 -17 -100.5t-61 -80t-120 -75t-194 -86.5l-37 80q104 42 169 74.5t101 62t49 60.5t13 71v51zM705 280v109h-178v85h178v99h-163v85h163v124h97v-502h-97z" />
<glyph unicode="&#xacbd;" d="M240 50q0 36 19.5 68t56 56t89 38t118.5 14t118.5 -14t89 -38t56 -56t19.5 -68v-40q0 -36 -19.5 -68t-56 -56t-89 -38t-118.5 -14t-118.5 14t-89 38t-56 56t-19.5 68v40zM394 641h-294v84h391v-145q0 -57 -16.5 -99t-60 -79.5t-119.5 -76t-194 -88.5l-39 79 q104 43 169 76t101 63t49 61t13 71v54zM705 238v134h-178v85h178v107h-163v85h163v133h97v-544h-97zM709 44q0 18 -13 36.5t-37 32.5t-58.5 23t-77.5 9t-77.5 -9t-58.5 -23t-37 -32.5t-13 -36.5v-28q0 -18 13 -36.5t37 -32.5t58.5 -23t77.5 -9t77.5 9t58.5 23t37 32.5 t13 36.5v28z" />
<glyph unicode="&#xacc1;" d="M804 254v-83h-478v-76h469v-81h-469v-77h494v-83h-593v400h577zM394 659h-294v83h391v-122q0 -59 -17.5 -101.5t-62.5 -78.5t-121.5 -71t-193.5 -79l-34 80q106 40 171 70.5t101 58.5t48 57.5t12 68.5v34zM705 300v119h-178v83h178v91h-163v83h163v106h97v-482h-97z" />
<glyph unicode="&#xacc4;" d="M319 607h-256v85h353v-135h132v206h97v-858h-97v328h-135v86h135v152h-133q-1 -39 -6.5 -72.5t-19 -64t-36 -61t-58 -63.5t-85.5 -70.5t-118 -82.5l-55 77q70 45 118.5 82t80 68.5t48.5 60t24.5 56t9 57t1.5 63.5v86zM833 -140h-97v922h97v-922z" />
<glyph unicode="&#xacc8;" d="M555 770h94v-621h-94v188h-134v83h134v107h-119v83h119v160zM40 289q95 48 149.5 82.5t81.5 64.5t34 59.5t7 67.5v72h-239v84h333v-161q0 -54 -11 -95t-45 -78.5t-98 -77.5t-169 -94zM323 -44h510v-86h-609v305h99v-219zM721 782h95v-655h-95v655z" />
<glyph unicode="&#xaccc;" d="M228 -146v250h492v86h-497v82h593v-248h-492v-88h515v-82h-611zM42 369q95 39 149 67.5t81 55t33.5 54.5t6.5 66v42h-239v83h333v-131q0 -56 -11.5 -96t-46 -74.5t-99 -68t-169.5 -76.5zM555 770h94v-449h-94v100h-128v82h128v75h-119v82h119v110zM721 782h95v-463h-95 v463z" />
<glyph unicode="&#xacd5;" d="M816 -142h-578v403h97v-115h385v115h96v-403zM42 356q95 39 149.5 67.5t81.5 55t34 54.5t7 66v41h-241v84h335v-131q0 -56 -11.5 -96t-47 -74.5t-100 -68t-169.5 -76.5zM555 770h94v-460h-94v105h-128v82h128v76h-119v82h119v115zM335 -58h385v121h-385v-121zM721 782h95 v-474h-95v474z" />
<glyph unicode="&#xacd7;" d="M450 229h98v-85q0 -21 3 -36.5t12.5 -29t26 -25.5t43.5 -27q33 -18 83 -41t125 -54l-40 -79q-66 28 -114.5 52.5t-82.5 41.5q-48 25 -71.5 42t-32.5 31q-9 -16 -31.5 -33.5t-74.5 -43.5q-33 -17 -81 -40t-114 -51l-42 80q74 30 125 53t84 42q26 15 42.5 28t25.5 26.5 t12.5 28.5t3.5 35v85zM40 301q95 48 149.5 83.5t81.5 66t34 60.5t7 68v56h-239v84h333v-149q0 -54 -9.5 -95t-43 -78.5t-97.5 -77.5t-173 -94zM555 770h94v-491h-94v103h-128v83h128v95h-119v83h119v127zM721 782h95v-592h-95v592z" />
<glyph unicode="&#xace0;" d="M878 67v-84h-846v84h306v335h99v-335h441zM754 699v-121q0 -67 -2 -121t-6.5 -101.5t-10.5 -91t-15 -90.5l-99 12q18 94 26 179t8 178v70h-519v86h618z" />
<glyph unicode="&#xace1;" d="M878 355v-84h-846v84h322v184h100v-184h424zM143 745h609v-119q0 -16 -1.5 -41t-4.5 -54.5t-8 -59.5t-11 -57l-98 11q13 57 18 105.5t5 91.5v39h-509v84zM141 169h619v-318h-99v234h-520v84z" />
<glyph unicode="&#xace4;" d="M878 314v-84h-846v84h322v206h100v-206h424zM143 737h609v-146q0 -17 -1.5 -42.5t-4.5 -55t-8 -60t-11 -57.5l-98 11q13 57 18 106.5t5 93.5v65h-509v85zM253 -44h521v-86h-620v279h99v-193z" />
<glyph unicode="&#xace7;" d="M759 185v-85h-506v-154h522v-85h-621v324h605zM878 362v-84h-846v84h322v177h100v-177h424zM143 745h609v-117q0 -16 -1.5 -41t-4.5 -54.5t-8 -59.5t-11 -57l-98 11q13 57 18 106.5t5 87.5v40h-509v84z" />
<glyph unicode="&#xace8;" d="M154 -146v239h506v78h-511v81h608v-238h-506v-79h533v-81h-630zM878 413v-83h-846v83h322v158h100v-158h424zM143 755h609v-108q0 -9 -0.5 -30t-3 -48t-6.5 -57t-10 -57l-98 11q12 53 15 97t3 75v34h-509v83z" />
<glyph unicode="&#xacea;" d="M485 -145v400h288v-400h-288zM878 413v-83h-846v83h322v158h100v-158h424zM138 -145v241h193v80h-196v79h290v-236h-193v-83h31q24 0 44.5 0.5t41 2t42.5 4t48 5.5l7 -81q-98 -12 -204 -12h-104zM143 755h609v-108q0 -9 -0.5 -30t-3 -48t-6.5 -57t-10 -57l-98 11 q12 53 15 97t3 75v34h-509v83zM680 177h-103v-244h103v244z" />
<glyph unicode="&#xacec;" d="M878 413v-83h-846v83h322v158h100v-158h424zM136 -145v241h195v80h-198v79h292v-236h-195v-83h33q24 0 44.5 0.5t41 2t42.5 4t48 5.5l7 -81q-98 -12 -204 -12h-106zM143 755h609v-108q0 -9 -0.5 -30t-3 -48t-6.5 -57t-10 -57l-98 11q12 53 15 97t3 75v34h-509v83zM637 13 q-6 -13 -12.5 -24.5t-21.5 -31.5t-37.5 -47t-52.5 -62l-66 60q31 34 52.5 59t36.5 45q16 22 26 38.5t16 32.5t8 32.5t2 38.5v105h98v-105q0 -22 2 -38.5t8 -32.5t16 -32.5t26 -38.5q15 -20 36.5 -45t52.5 -59l-66 -60q-30 35 -52.5 62t-37.5 47t-21.5 31.5t-11.5 24.5h-1z " />
<glyph unicode="&#xacef;" d="M878 413v-83h-846v83h322v158h100v-158h424zM133 -145v242h189v82h-192v79h285v-237h-189v-86h33q24 0 44.5 0.5t41 2t42.5 4t48 5.5l7 -80q-98 -12 -204 -12h-105zM143 755h609v-108q0 -9 -0.5 -30t-3 -48t-6.5 -57t-10 -57l-98 11q12 53 15 97t3 75v34h-509v83z M783 -49q0 -24 -11.5 -44.5t-32.5 -35.5t-50 -24t-63 -9t-63 9t-50 24t-32.5 35.5t-11.5 44.5v26q0 24 11.5 44.5t32.5 35.5t50 24t63 9t63 -9t50 -24t32.5 -35.5t11.5 -44.5v-26zM803 122h-354v79h129v80h96v-80h129v-79zM698 -28q0 20 -20 33t-52 13t-52 -13t-20 -33v-16 q0 -20 20 -33t52 -13t52 13t20 33v16z" />
<glyph unicode="&#xacf0;" d="M757 -139h-604v325h604v-325zM878 365v-84h-846v84h322v174h100v-174h424zM143 745h609v-113q0 -16 -1.5 -41.5t-4.5 -54.5t-8 -59.5t-11 -57.5l-98 11q14 58 18.5 108.5t4.5 86.5v36h-509v84zM659 103h-408v-159h408v159z" />
<glyph unicode="&#xacf1;" d="M757 229v-369h-604v369h98v-99h408v99h98zM878 382v-83h-846v83h322v173h100v-173h424zM143 750h609v-121q0 -9 -0.5 -30.5t-3 -48.5t-6.5 -57t-10 -57l-98 11q13 60 15.5 107.5t2.5 67.5v44h-509v84zM659 -56v105h-408v-105h408z" />
<glyph unicode="&#xacf3;" d="M878 351v-84h-846v84h322v183h100v-183h424zM454 14q-4 -7 -11.5 -14t-20 -15t-32 -19t-47.5 -25q-37 -19 -87 -42.5t-116 -51.5l-41 80q73 32 123 54.5t87 42.5q31 16 50 29.5t29.5 26t13.5 25t3 28.5v68h99v-68q0 -16 3 -29t13.5 -25.5t29 -25.5t50.5 -29 q36 -19 87 -42t123 -54l-41 -79q-63 26 -114 49.5t-89 43.5q-28 14 -47.5 25t-32.5 19t-20 15t-10 13h-2zM143 745h609v-121q0 -16 -1 -40t-4 -52.5t-8 -59.5t-12 -62l-98 11q14 63 18.5 112t4.5 87v41h-509v84z" />
<glyph unicode="&#xacf5;" d="M455 208q61 0 113.5 -11.5t91.5 -33.5t61 -53t22 -71v-36q0 -40 -22 -71.5t-61 -53t-91.5 -33t-113.5 -11.5t-113.5 11.5t-91.5 33t-61 53t-22 71.5v36q0 40 22 71t61 53t91.5 33.5t113.5 11.5zM878 358v-84h-846v84h322v181h100v-181h424zM143 745h609v-117 q0 -16 -1.5 -41.5t-4.5 -54.5t-8 -59.5t-11 -57.5l-98 11q13 57 18 108.5t5 92.5v34h-509v84zM455 -85q40 0 74.5 7.5t60 20t40.5 29.5t15 37v24q0 19 -15 36.5t-40.5 30t-60 20t-74.5 7.5t-74.5 -7.5t-60 -20t-40.5 -30t-15 -36.5v-24q0 -20 15 -37t40.5 -29.5t60 -20 t74.5 -7.5z" />
<glyph unicode="&#xacf6;" d="M777 200v-81h-273q0 -17 3.5 -31t12.5 -26t25.5 -24t42.5 -24q36 -17 84.5 -35.5t120.5 -44.5l-36 -79q-56 20 -109 41t-87 36q-53 23 -75 39.5t-30 32.5q-8 -16 -30.5 -33.5t-75.5 -40.5q-35 -16 -88 -36t-109 -40l-36 80q72 26 120.5 44.5t84.5 35.5q26 12 42.5 24 t25.5 24t12.5 26t3.5 31h-273v81h644zM878 376v-84h-846v84h322v169h100v-169h424zM143 745h609v-116q0 -11 -1 -33.5t-3 -50t-6.5 -57.5t-10.5 -57l-98 11q13 56 16 103.5t3 73.5v42h-509v84z" />
<glyph unicode="&#xacfc;" d="M672 -140v922h98v-340h138v-86h-138v-496h-98zM621 88q-62 -6 -117 -10t-119.5 -6.5t-148 -3.5t-201.5 -1v86h96t84 1v276h98v-274q45 1 84 2.5t74.5 4t70 5.5t71.5 6zM80 695h466v-138q0 -25 -1 -60t-4 -73t-7.5 -75t-10.5 -67l-97 12q7 36 11.5 72t7 69t3 60.5 t0.5 45.5v68h-368v86z" />
<glyph unicode="&#xacfd;" d="M157 166h609v-315h-99v230h-510v85zM619 284q-60 -6 -115.5 -10.5t-122 -7t-150.5 -4t-199 -1.5v85h187v191h98v-189q41 1 77.5 2.5t71.5 4t70.5 5t74.5 6.5zM668 214v568h98v-244h130v-86h-130v-238h-98zM427 430q11 52 16.5 98.5t5.5 84.5v42h-355v85h453v-113 q0 -24 -1.5 -51.5t-4.5 -55.5t-7.5 -54t-9.5 -48z" />
<glyph unicode="&#xad00;" d="M668 98v684h98v-281h130v-86h-130v-317h-98zM277 -46h514v-85h-613v277h99v-192zM619 258q-60 -6 -115.5 -10.5t-122 -7t-150.5 -4t-199 -1.5v85h184v191h98v-189q41 1 78 2.5t72.5 4t71.5 5t75 6.5zM427 418q11 52 16.5 101t5.5 92v39h-355v85h453v-110q0 -27 -1.5 -56 t-4.5 -58t-7.5 -56t-9.5 -49z" />
<glyph unicode="&#xad04;" d="M167 -146v240h502v73h-507v82h604v-235h-506v-78h533v-82h-626zM619 340q-60 -6 -115.5 -10.5t-122 -7t-150.5 -4t-199 -1.5v82h187v163h98v-161q41 1 77.5 2.5t71.5 4t70.5 5t74.5 6.5zM668 283v499h98v-195h130v-86h-130v-218h-98zM431 470q9 44 13 83t4 75v39h-354v83 h452v-114q0 -44 -5 -93t-13 -85z" />
<glyph unicode="&#xad06;" d="M475 -145v390h291v-390h-291zM125 -145v237h199v73h-202v80h295v-231h-199v-77h37q24 0 44.5 0.5t41 2t42.5 4t48 5.5l7 -82q-98 -12 -204 -12h-109zM619 340q-60 -6 -115.5 -10.5t-122 -7t-150.5 -4t-199 -1.5v83h187v162h98v-160q41 1 77.5 2.5t71.5 4t70.5 5t74.5 6.5 zM668 287v495h98v-195h130v-86h-130v-214h-98zM431 470q9 44 13 83t4 75v39h-354v83h452v-114q0 -44 -5 -93t-13 -85zM673 165h-106v-230h106v230z" />
<glyph unicode="&#xad0c;" d="M766 192v-331h-585v331h585zM619 298q-60 -6 -115.5 -10.5t-122 -7t-150.5 -4t-199 -1.5v85h187v175h98v-173q41 1 77.5 2.5t71.5 4t70.5 5t74.5 6.5zM668 237v545h98v-231h130v-86h-130v-228h-98zM279 -55h389v163h-389v-163zM426 437q12 53 17 97.5t5 82.5v38h-354v85 h452v-112q0 -51 -6 -104.5t-17 -98.5z" />
<glyph unicode="&#xad0d;" d="M766 223v-363h-587v363h98v-96h391v96h98zM619 309q-60 -6 -115.5 -10.5t-122 -7t-150.5 -4t-199 -1.5v85h187v175h98v-173q41 1 77.5 2.5t71.5 4t70.5 5t74.5 6.5zM668 268v514h98v-227h130v-86h-130v-201h-98zM429 448q9 44 14 85t5 77v46h-354v84h452v-122 q0 -22 -1.5 -46.5t-4.5 -48.5t-6.5 -46.5t-7.5 -40.5zM668 -56v100h-391v-100h391z" />
<glyph unicode="&#xad0f;" d="M429 201h98v-62q0 -21 3 -36t12.5 -27t26 -23.5t43.5 -26.5q33 -18 82.5 -40t124.5 -53l-38 -79q-66 28 -115 51t-83 40q-48 25 -71.5 40.5t-32.5 29.5q-9 -15 -31.5 -31.5t-74.5 -42.5q-33 -17 -81.5 -38.5t-114.5 -49.5l-40 80q74 30 124.5 51.5t83.5 40.5 q26 15 42.5 27t25.5 25t12.5 27.5t3.5 34.5v62zM668 159v623h98v-251h130v-86h-130v-286h-98zM619 283q-60 -6 -115.5 -10.5t-122 -7t-150.5 -4t-199 -1.5v85h187v192h98v-190q41 1 77.5 2.5t71.5 4t70.5 5t74.5 6.5zM427 430q11 52 16.5 98.5t5.5 84.5v42h-355v85h453v-113 q0 -24 -1.5 -51.5t-4.5 -55.5t-7.5 -54t-9.5 -48z" />
<glyph unicode="&#xad11;" d="M191 35q0 36 20 66.5t57.5 52t91 34t119.5 12.5t119 -12.5t90.5 -34t58 -52t20.5 -66.5v-32q0 -36 -20.5 -66.5t-58 -52t-90.5 -34t-119 -12.5t-119.5 12.5t-91 34t-57.5 52t-20 66.5v32zM619 285q-60 -6 -115.5 -10.5t-122 -7t-150.5 -4t-199 -1.5v85h187v190h98v-188 q41 1 77.5 2.5t71.5 4t70.5 5t74.5 6.5zM668 225v557h98v-241h130v-86h-130v-230h-98zM288 9q0 -15 12.5 -31.5t37 -30t60 -22t81.5 -8.5t81.5 8.5t60 22t37 30t12.5 31.5v20q0 15 -12.5 31.5t-37 30t-60 22t-81.5 8.5t-81.5 -8.5t-60 -22t-37 -30t-12.5 -31.5v-20zM427 432 q11 52 16.5 98.5t5.5 84.5v40h-355v85h453v-111q0 -24 -1.5 -51.5t-4.5 -55.5t-7.5 -54t-9.5 -48z" />
<glyph unicode="&#xad18;" d="M854 -140h-97v481h-88v-456h-97v881h97v-339h88v355h97v-922zM536 98q-96 -6 -214.5 -8.5t-275.5 -2.5v86h139v246h98v-245q75 1 135 3t114 5zM359 304q13 65 16.5 128t3.5 126v45h-293v86h390v-122q0 -26 -0.5 -59t-3 -69.5t-6.5 -74.5t-11 -72z" />
<glyph unicode="&#xad1c;" d="M733 782h95v-676h-95v335h-88v-313h-94v642h94v-244h88v256zM314 -44h528v-86h-627v286h99v-200zM522 258q-85 -8 -207.5 -14t-275.5 -6v84h74t69 1v187h98v-185q75 3 133 6.5t103 8.5zM351 409q11 52 14 99t3 94v33h-288v85h384v-102q0 -23 -0.5 -51t-2.5 -57.5 t-5.5 -58.5t-9.5 -53z" />
<glyph unicode="&#xad20;" d="M230 -147v234h502v71h-507v82h603v-231h-502v-74h525v-82h-621zM733 782h95v-494h-95v205h-88v-203h-94v480h94v-193h88v205zM522 326q-85 -8 -207.5 -14t-275.5 -6v82h74t69 1v158h98v-156q75 3 133 6.5t103 8.5zM352 460q10 47 13 88t3 82v23h-288v83h384v-90 q0 -43 -3 -95.5t-14 -101.5z" />
<glyph unicode="&#xad29;" d="M828 218v-358h-594v358h98v-94h398v94h98zM733 782h95v-518h-95v212h-88v-210h-94v504h94v-210h88v222zM522 300q-85 -8 -207.5 -14t-275.5 -6v84h74t69 1v165h98v-163q75 3 133 6.5t103 8.5zM351 438q10 47 13.5 91t3.5 85v28h-288v84h384v-96q0 -43 -3.5 -98.5 t-14.5 -104.5zM730 -56v97h-398v-97h398z" />
<glyph unicode="&#xad2c;" d="M733 782h95v-533h-95v219h-88v-217h-94v519h94v-217h88v229zM714 198v-78q0 -17 1.5 -30t6.5 -24.5t14 -22.5t24 -24q26 -24 59 -47.5t72 -49.5l-53 -69q-37 26 -71 51.5t-55 42.5q-20 17 -30.5 29t-15.5 20q-5 -9 -13.5 -20t-25.5 -27q-25 -23 -56.5 -46.5t-67.5 -49.5 q-36 26 -67.5 49.5t-56.5 46.5q-17 16 -25.5 27t-13.5 20q-5 -8 -15.5 -20t-30.5 -29q-21 -17 -55 -42.5t-71 -51.5l-53 69q39 26 72 49.5t59 47.5q15 13 24 24t14 22.5t6.5 24.5t1.5 30v78h96v-78q0 -18 1.5 -31.5t6 -24.5t12.5 -22t21 -25q15 -16 33 -29t41 -29 q23 16 41 29t33 29q13 14 21 25t12.5 22t6 24.5t1.5 31.5v78h96zM522 280q-85 -8 -207.5 -14t-275.5 -6v84h74t69 1v181h98v-179q75 3 133 6.5t103 8.5zM351 427q11 52 14 96.5t3 89.5v28h-288v85h384v-97q0 -23 -0.5 -49.5t-2.5 -55t-5.5 -56.5t-9.5 -52z" />
<glyph unicode="&#xad2d;" d="M235 32q0 38 21 68.5t59.5 51.5t93 32.5t121.5 11.5t121.5 -11.5t93 -32.5t59.5 -51.5t21 -68.5v-30q0 -38 -21 -68.5t-59.5 -51.5t-93 -32.5t-121.5 -11.5t-121.5 11.5t-93 32.5t-59.5 51.5t-21 68.5v30zM733 782h95v-570h-95v256h-88v-221h-94v523h94v-217h88v229z M332 8q0 -16 13.5 -32.5t39 -29.5t62 -21t83.5 -8t83.5 8t62 21t39 29.5t13.5 32.5v18q0 16 -13.5 32.5t-39 29.5t-62 21t-83.5 8t-83.5 -8t-62 -21t-39 -29.5t-13.5 -32.5v-18zM522 279q-85 -8 -207.5 -14t-275.5 -6v84h74t69 1v182h98v-180q75 3 133 6.5t103 8.5zM351 425 q11 52 14 96.5t3 89.5v30h-288v85h384v-99q0 -23 -0.5 -49.5t-2.5 -55t-5.5 -56.5t-9.5 -52z" />
<glyph unicode="&#xad34;" d="M709 -140v922h98v-922h-98zM659 91q-63 -6 -129 -10.5t-139.5 -7.5t-157 -4.5t-181.5 -1.5v86q104 -1 191 0v277h98v-275q88 2 162 6.5t147 12.5zM106 695h471v-142q0 -25 -1 -59.5t-4 -72.5t-7.5 -75t-10.5 -67l-97 12q7 36 11.5 72t7 68.5t3 60t0.5 45.5v72h-373v86z " />
<glyph unicode="&#xad35;" d="M182 166h620v-315h-99v230h-521v85zM651 283q-60 -6 -117 -10.5t-125.5 -7t-154 -4t-200.5 -1.5v85h188v192h98v-190q42 1 80 2.5t74.5 4l73 5t75.5 6.5zM450 430q11 52 16.5 98.5t5.5 84.5v42h-357v85h455v-113q0 -24 -1.5 -51.5t-4.5 -55.5t-7.5 -54t-9.5 -48zM704 214 v568h98v-568h-98z" />
<glyph unicode="&#xad38;" d="M297 -46h524v-85h-623v277h99v-192zM651 258q-60 -6 -117 -10.5t-125.5 -7t-154 -4t-200.5 -1.5v85h188v191h98v-189q42 1 80 2.5t74.5 4l73 5t75.5 6.5zM704 98v684h98v-684h-98zM451 418q11 52 16.5 101t5.5 92v32h-357v92h455v-110v-17q-1 -38 -4.5 -82t-10.5 -82 l-3 -15q-2 -6 -2 -10l-3 -13z" />
<glyph unicode="&#xad3c;" d="M203 -146v240h502v74h-507v82h604v-236h-506v-78h533v-82h-626zM650 340q-60 -6 -117 -10.5t-125 -7t-153.5 -4t-200.5 -1.5v82h189v163h98v-161q42 1 80 2.5t74 4t72.5 5t75.5 6.5zM456 470q9 44 13 83t4 75v39h-357v83h455v-114q0 -44 -5 -93t-13 -85zM704 284v498h98 v-498h-98z" />
<glyph unicode="&#xad44;" d="M802 192v-331h-604v331h604zM651 298q-60 -6 -117 -10.5t-125.5 -7t-154 -4t-200.5 -1.5v85h188v177h98v-175q42 1 80 2.5t74.5 4l73 5t75.5 6.5zM296 -55h408v163h-408v-163zM450 437q12 53 17 97.5t5 82.5v38h-357v85h455v-112q0 -51 -6 -104.5t-17 -98.5zM704 237v545 h98v-545h-98z" />
<glyph unicode="&#xad45;" d="M802 225v-365h-603v365h98v-101h407v101h98zM651 309q-60 -6 -117 -10.5t-125.5 -7t-154 -4t-200.5 -1.5v85h188v166h98v-164q42 1 80 2.5t74.5 4l73 5t75.5 6.5zM454 448q9 44 14 85t5 77v46h-357v84h455v-122q0 -22 -1.5 -46.5t-4.5 -48.5t-6.5 -46.5t-7.5 -40.5z M704 272v510h98v-510h-98zM704 -53v95h-407v-95h407z" />
<glyph unicode="&#xad47;" d="M442 212h50h48v-68q0 -21 3 -36.5t12.5 -28t26 -24.5t43.5 -27q33 -18 82.5 -40.5t124.5 -53.5l-38 -79q-66 28 -115 51.5t-83 40.5q-48 25 -71.5 42t-32.5 31q-9 -16 -31.5 -33.5t-74.5 -43.5q-33 -17 -81.5 -39t-114.5 -50l-40 80q74 30 124.5 52t83.5 41 q26 15 42.5 27.5t25.5 26t12.5 28.5t3.5 35v68zM651 282q-60 -6 -117 -10.5t-125.5 -7t-154 -4t-200.5 -1.5v85h189v192h98v-190q42 1 80 2.5t74 4t72.5 5t75.5 6.5zM451 426q11 52 16.5 98.5t5.5 84.5v46h-357v85h455v-117q0 -24 -1.5 -51.5t-4.5 -55.5t-7.5 -54t-9.5 -48z M704 169v613h98v-613h-98z" />
<glyph unicode="&#xad49;" d="M225 35q0 36 20 66.5t57.5 52t91 34t119.5 12.5t119 -12.5t90.5 -34t58 -52t20.5 -66.5v-32q0 -36 -20.5 -66.5t-58 -52t-90.5 -34t-119 -12.5t-119.5 12.5t-91 34t-57.5 52t-20 66.5v32zM651 285q-60 -6 -117 -10.5t-125.5 -7t-154 -4t-200.5 -1.5v85h189v190h98v-188 q42 1 80 2.5t74 4t72.5 5t75.5 6.5zM322 9q0 -15 12.5 -31.5t37 -30t60 -22t81.5 -8.5t81.5 8.5t60 22t37 30t12.5 31.5v20q0 15 -12.5 31.5t-37 30t-60 22t-81.5 8.5t-81.5 -8.5t-60 -22t-37 -30t-12.5 -31.5v-20zM451 430q11 52 16.5 98.5t5.5 84.5v42h-357v85h455v-113 q0 -24 -1.5 -51.5t-4.5 -55.5t-7.5 -54t-9.5 -48zM704 220v562h98v-562h-98z" />
<glyph unicode="&#xad50;" d="M878 67v-84h-846v84h192v319h97v-319h122v319h97v-319h338zM763 700v-121q0 -67 -1.5 -121t-5 -101.5t-9 -91t-13.5 -90.5l-98 12q19 95 24 179.5t5 177.5v70h-529v86h627z" />
<glyph unicode="&#xad54;" d="M878 301v-84h-846v84h214v211h97v-211h106v211h97v-211h332zM143 737h615v-146q0 -17 -1.5 -42.5t-4.5 -55t-8 -60t-11 -57.5l-98 11q13 57 18 106.5t5 93.5v64h-515v86zM253 -44h521v-86h-620v273h99v-187z" />
<glyph unicode="&#xad58;" d="M154 -146v238h506v77h-511v81h608v-237h-506v-78h533v-81h-630zM878 408v-83h-846v83h214v157h97v-157h106v157h97v-157h332zM143 755h614v-108q0 -9 -0.5 -30t-2.5 -48t-6 -57t-10 -57l-98 11q12 53 14.5 97t2.5 75v31h-514v86z" />
<glyph unicode="&#xad61;" d="M757 232v-372h-604v372h98v-100h408v100h98zM878 376v-84h-846v84h214v173h97v-173h106v173h97v-173h332zM143 750h614v-121q0 -9 -0.5 -30t-2.5 -48.5t-6 -57.5t-10 -57l-98 11q12 53 14.5 97.5t2.5 75.5v44h-514v86zM659 -56v107h-408v-107h408z" />
<glyph unicode="&#xad63;" d="M878 341v-84h-846v84h214v187h97v-187h106v187h97v-187h332zM504 198v-65q0 -16 2.5 -29t12.5 -26t29 -26.5t51 -30.5q36 -19 87.5 -41.5t123.5 -51.5l-41 -79q-63 26 -113 48.5t-88 40.5q-58 27 -82 44.5t-31 28.5q-8 -12 -32 -29t-81 -45q-37 -18 -86.5 -40t-115.5 -50 l-41 80q73 30 123.5 52t87.5 42q32 17 51 31t28.5 26.5t12.5 25.5t3 29v65h99zM143 745h615v-121q0 -16 -1 -40t-4 -52.5t-8 -59.5t-12 -62l-98 11q14 63 18.5 112t4.5 87v39h-515v86z" />
<glyph unicode="&#xad6c;" d="M878 310v-84h-373v-366h-100v366h-373v84h590q16 74 22.5 140.5t6.5 133.5v54h-513v87h612v-118q0 -72 -7 -147t-21 -150h156z" />
<glyph unicode="&#xad6d;" d="M141 174h261v160h-370v84h595q13 56 18 108.5t5 97.5v37h-507v84h607v-125q0 -42 -5 -95.5t-15 -106.5h148v-84h-376v-160h258v-323h-99v239h-520v84z" />
<glyph unicode="&#xad70;" d="M878 386v-84h-361v-221h-100v221h-385v84h595q13 58 18 115.5t5 102.5v51h-507v85h607v-140q0 -43 -5 -101t-16 -113h149zM253 -44h521v-86h-620v299h99v-213z" />
<glyph unicode="&#xad73;" d="M759 202v-85h-506v-171h522v-85h-621v341h251v140h-373v84h597q12 54 16.5 104.5t4.5 94.5v36h-507v84h607v-124q0 -41 -4.5 -92.5t-14.5 -102.5h147v-84h-373v-140h254z" />
<glyph unicode="&#xad74;" d="M878 453v-82h-373v-115h251v-240h-506v-81h533v-81h-630v241h506v80h-511v81h257v115h-373v82h600q10 51 14 98t4 88v33h-507v83h607v-120q0 -38 -4.5 -86t-12.5 -96h145z" />
<glyph unicode="&#xad75;" d="M878 453v-82h-373v-113h264v-408h-98v324h-193v47h-43v-200h-207v-84h65q55 0 103.5 2t102.5 10l7 -81q-57 -7 -115.5 -9.5t-118.5 -2.5h-138v242h207v81h-210v79h274v113h-373v82h600q10 51 14 98t4 88v33h-507v83h607v-120q0 -38 -4.5 -86t-12.5 -96h145z" />
<glyph unicode="&#xad76;" d="M878 453v-82h-373v-113h268v-403h-288v371h-60v-205h-193v-85h31q24 0 44.5 0.5t41 2t42.5 4t48 5.5l7 -81q-98 -12 -204 -12h-104v243h193v81h-196v79h270v113h-373v82h600q10 51 14 98t4 88v33h-507v83h607v-120q0 -38 -4.5 -86t-12.5 -96h145zM680 180h-103v-247h103 v247z" />
<glyph unicode="&#xad7b;" d="M878 453v-82h-373v-124h-90v-225h-189v-87h33q24 0 44.5 0.5t41 2t42.5 4t48 5.5l7 -80q-98 -12 -204 -12h-105v243h189v84h-192v78h275v111h-373v82h600q10 51 14 98t4 88v33h-507v83h607v-120q0 -38 -4.5 -86t-12.5 -96h145zM783 -49q0 -24 -11.5 -44.5t-32.5 -35.5 t-50 -24t-63 -9t-63 9t-50 24t-32.5 35.5t-11.5 44.5v26q0 24 11.5 44.5t32.5 35.5t50 24t63 9t63 -9t50 -24t32.5 -35.5t11.5 -44.5v-26zM803 123h-354v79h129v82h96v-82h129v-79zM698 -28q0 20 -20 33t-52 13t-52 -13t-20 -33v-16q0 -20 20 -33t52 -13t52 13t20 33v16z " />
<glyph unicode="&#xad7c;" d="M757 -139h-604v342h252v138h-373v84h597q12 54 16.5 105.5t4.5 95.5v35h-507v84h607v-123q0 -42 -5 -94t-14 -103h147v-84h-373v-138h252v-342zM659 120h-408v-176h408v176z" />
<glyph unicode="&#xad7d;" d="M757 238v-378h-604v378h98v-109h408v109h98zM32 347v84h597q11 54 16 105t5 95v35h-507v84h607v-123q0 -41 -5 -93t-14 -103h147v-84h-373v-157h-100v157h-373zM659 -56v104h-408v-104h408z" />
<glyph unicode="&#xad7f;" d="M878 415v-84h-373v-127h-100v127h-373v84h595q13 57 18 110t5 98v41h-507v84h607v-129q0 -42 -5 -96.5t-16 -107.5h149zM504 171v-41q0 -16 2.5 -29t12.5 -26t29 -26.5t51 -30.5q36 -19 87 -39.5t123 -49.5l-39 -80q-63 25 -113.5 46.5t-88.5 39.5q-58 27 -82 44.5 t-31 28.5q-8 -12 -32 -29t-81 -45q-37 -18 -87 -39.5t-116 -47.5l-39 81q73 29 123 49.5t87 40.5q32 17 51 31t28.5 26.5t12.5 25.5t3 29v41h99z" />
<glyph unicode="&#xad81;" d="M878 419v-84h-373v-128q51 -5 95 -18.5t75.5 -35t49.5 -50.5t18 -65v-31q0 -40 -22 -72t-61 -54.5t-91.5 -34.5t-113.5 -12t-113.5 12t-91.5 34.5t-61 54.5t-22 72v31q0 36 18 65t49.5 50.5t75.5 35t95 18.5v128h-373v84h597q11 54 16 105t5 95v42h-507v84h607v-130 q0 -41 -5 -93t-14 -103h147zM455 -85q40 0 74.5 7t60 20t40.5 31t15 40v19q0 21 -15 38.5t-40.5 30.5t-60 20t-74.5 7t-74.5 -7t-60 -20t-40.5 -30.5t-15 -38.5v-19q0 -22 15 -40t40.5 -31t60 -20t74.5 -7z" />
<glyph unicode="&#xad82;" d="M878 432v-84h-373v-116h-100v116h-373v84h598q11 53 15.5 102.5t4.5 92.5v34h-507v84h607v-122q0 -40 -4.5 -90t-13.5 -101h146zM777 199v-81h-273q0 -17 3.5 -31t12.5 -26t25.5 -23.5t42.5 -23.5q36 -17 84.5 -35.5t120.5 -44.5l-36 -79q-56 20 -109 41t-87 36 q-53 23 -75 39.5t-30 32.5q-8 -16 -30.5 -33.5t-75.5 -40.5q-35 -16 -88 -36t-109 -40l-36 80q72 26 120.5 44.5t84.5 35.5q25 12 41.5 23.5t26 23.5t13 26t3.5 31h-273v81h644z" />
<glyph unicode="&#xad88;" d="M286 -112v393q-54 -2 -111.5 -2h-122.5v86q118 -1 212.5 0.5t176.5 5.5q6 25 10 54.5t7 60t4.5 60t1.5 53.5v43h-357v86h455v-120q0 -24 -1 -52.5t-3.5 -59t-6.5 -61.5t-10 -58q55 3 110 9l8 -83q-65 -7 -131.5 -11.5t-141.5 -7.5v-396h-100zM709 -140v235h-202v85h202 v602h98v-922h-98z" />
<glyph unicode="&#xad89;" d="M646 400q-33 -3 -65.5 -6t-65.5 -5.5t-68 -4.5t-75 -3v-177h-98v174q-48 -2 -103.5 -2h-121.5v83h120t102 1t88.5 2t79.5 3q4 18 7 40t4.5 44.5t2 43.5t0.5 37v29h-331v85h429v-95q0 -15 -1 -36.5t-3 -45.5t-4.5 -49t-6.5 -47l102 9zM181 154h621v-303h-99v218h-522v85z M704 202v58h-195v80h195v442h98v-580h-98z" />
<glyph unicode="&#xad8c;" d="M277 184v168q-49 -2 -105 -2h-123v85h119.5t101.5 1t88 2t79 3q8 39 12 85.5t4 89.5v38h-331v85h429v-114q0 -42 -4 -88t-11 -90l102 9l8 -82q-66 -7 -129.5 -11.5t-141.5 -7.5v-171h-98zM704 71v139h-195v85h195v487h98v-711h-98zM296 -46h524v-85h-623v265h99v-180z " />
<glyph unicode="&#xad90;" d="M203 -146v224h502v65h-507v80h604v-222h-506v-67h533v-80h-626zM646 432q-66 -7 -129.5 -11.5t-141.5 -7.5v-154h-98v151q-49 -2 -105 -2h-123v79h121t102 1t88.5 2t79.5 3q4 18 6.5 39t4 43t2 42.5t0.5 37.5v10h-331v84h429v-77q0 -17 -1 -38t-2.5 -44t-4 -46.5 t-5.5 -44.5l100 9zM704 257v47h-195v76h195v402h98v-525h-98z" />
<glyph unicode="&#xad9c;" d="M646 404q-33 -3 -65.5 -6t-65.5 -5.5t-68 -4.5t-75 -3v-162h-98v159q-48 -2 -103.5 -2h-121.5v83h119.5t101.5 1t88 2t79 3q4 18 7.5 41t5 46t2.5 45t1 39v19h-331v85h429v-87q0 -15 -1 -37t-3 -46.5t-4.5 -50.5t-6.5 -48l102 9zM701 179v-55q0 -19 1.5 -32t6 -24.5 t14 -22.5t24.5 -25q26 -24 58.5 -47.5t72.5 -49.5l-53 -69q-38 25 -72 50.5t-54 42.5t-30.5 29.5t-15.5 20.5q-8 -16 -41 -46q-26 -23 -57 -47.5t-65 -49.5q-34 25 -65 49.5t-57 47.5q-33 30 -41 46q-5 -8 -15.5 -20.5t-30.5 -29.5t-54 -42.5t-72 -50.5l-53 69 q40 26 72.5 49.5t58.5 47.5q15 14 24.5 25t14 22.5t6 24.5t1.5 32v55h96v-55q0 -20 1.5 -33.5t5.5 -24.5t12 -21t22 -23q15 -14 32.5 -28.5t41.5 -32.5q24 18 41.5 32.5t32.5 28.5q13 13 21.5 23t12.5 21t5.5 24.5t1.5 33.5v55h96zM704 216v55h-195v80h195v431h98v-566h-98z " />
<glyph unicode="&#xad9d;" d="M227 30q0 34 19.5 63t56 50t90 33t122.5 12t122.5 -12t90 -33t56 -50t19.5 -63v-34q0 -34 -19.5 -63t-56 -50t-90 -33t-122.5 -12t-122.5 12t-90 33t-56 50t-19.5 63v34zM646 403q-33 -3 -65.5 -6t-65.5 -5.5t-68 -4.5t-75 -3v-182h-98v179q-48 -2 -103.5 -2h-121.5v83 h120t102 1t88.5 2t79.5 3q4 18 7 40t4.5 44.5t2 43.5t0.5 37v26h-331v85h429v-92q0 -15 -1 -36t-2.5 -45t-4.5 -49.5t-6 -47.5l101 9zM704 204v61h-195v80h195v437h98v-578h-98zM324 2q0 -13 11.5 -28t35 -27.5t59.5 -21t85 -8.5t85 8.5t59.5 21t35 27.5t11.5 28v22 q0 13 -11.5 27.5t-35 27.5t-59.5 21.5t-85 8.5t-85 -8.5t-59.5 -21.5t-35 -27.5t-11.5 -27.5v-22z" />
<glyph unicode="&#xada4;" d="M228 -81v371q-44 -1 -91.5 -1h-104.5v85q96 0 169 0.5t141 2.5q13 54 18.5 117.5t5.5 123.5v15h-286v86h383v-92q0 -59 -4.5 -123.5t-16.5 -122.5q17 1 35.5 1.5t38.5 2.5l4 -82q-54 -5 -100.5 -7t-93.5 -4v-373h-98zM564 766h97v-881h-97v233h-158v83h158v565zM838 -140 h-97v922h97v-922z" />
<glyph unicode="&#xadb7;" d="M518 406q-48 -5 -96 -8t-101 -5v-225h-96v222q-45 -1 -94 -1h-103v80q102 0 182.5 1.5t148.5 4.5q7 42 9.5 86t2.5 88v4h-287v85h382v-79q0 -40 -2.5 -86.5t-9.5 -91.5q15 1 29 2t28 3zM466 183h98v-51q0 -19 3.5 -32.5t12.5 -24.5t25.5 -22.5t43.5 -25.5 q33 -17 82.5 -40t124.5 -53l-37 -80q-66 28 -115.5 51.5t-83.5 40.5q-48 25 -71.5 40t-32.5 29q-9 -16 -31.5 -31.5t-74.5 -41.5q-33 -17 -82.5 -39t-115.5 -50l-38 81q75 29 125 51.5t83 40.5q26 14 42.5 26t25.5 24t12.5 25t3.5 31v51zM414 347h155v423h94v-552h-94v54 h-155v75zM735 782h94v-644h-94v644z" />
<glyph unicode="&#xadc0;" d="M659 291q-63 -7 -126.5 -11.5t-135.5 -7.5v-384h-101v381q-55 -2 -115.5 -2h-128.5v86q118 -1 213 0.5t177 5.5q6 25 10.5 56t7.5 62.5t4.5 61.5t1.5 54v48h-361v87h459v-125q0 -51 -5 -116t-16 -122q53 3 108 9zM709 -140v922h98v-922h-98z" />
<glyph unicode="&#xadc1;" d="M644 383q-66 -7 -128.5 -11.5t-140.5 -7.5v-160h-98v157q-49 -1 -105.5 -1h-124.5v85h121t102.5 1t89 2t79.5 3q4 18 7 40t4.5 44t2 43t0.5 37v44h-332v85h430v-110q0 -15 -1 -36t-2.5 -45t-4.5 -49t-6 -47q24 2 48.5 4t50.5 4zM178 154h624v-303h-99v218h-525v85z M704 202v580h98v-580h-98z" />
<glyph unicode="&#xadc4;" d="M644 358q-66 -7 -129.5 -11.5t-142.5 -7.5v-155h-98v152q-48 -1 -104 -1h-123v85h120t102.5 1t88.5 2t79 3q8 37 12 85.5t4 90.5v52h-332v85h430v-122q0 -19 -1 -42t-3 -47.5t-5 -49.5t-6 -47l100 9zM297 -46h524v-85h-623v263h99v-178zM704 71v711h98v-711h-98z" />
<glyph unicode="&#xadc8;" d="M203 -146v233h502v71h-507v81h604v-230h-506v-74h533v-81h-626zM643 415q-32 -3 -63.5 -5.5t-64 -4.5t-67 -3.5t-73.5 -2.5v-123h-98v121q-49 -1 -105.5 -1h-124.5v80q130 0 222.5 1t168.5 3q4 18 7 40t4.5 44.5t2.5 44t1 39.5v17h-332v84h430v-84q0 -17 -1 -39.5 t-2.5 -46.5t-4.5 -48.5t-6 -45.5q25 2 49 3.5t50 3.5zM704 273v509h98v-509h-98z" />
<glyph unicode="&#xadd0;" d="M802 177v-316h-604v316h604zM644 398q-64 -7 -125.5 -11.5t-135.5 -6.5v-155h-98v152q-51 -2 -109 -2h-129v85h121t102.5 1t89 2t79.5 3q4 18 7 39.5t4.5 43.5t2 42.5t0.5 36.5v31h-332v85h430v-97q0 -14 -1 -35t-2.5 -44.5t-4.5 -48.5t-6 -47q24 2 48.5 4t50.5 4z M296 -55h408v148h-408v-148zM704 222v560h98v-560h-98z" />
<glyph unicode="&#xadd1;" d="M802 209v-349h-603v349h98v-98h407v98h98zM643 400q-63 -6 -124 -10t-136 -6v-142h-98v140q-51 -1 -109 -1h-129v82h120.5t103 0.5t89.5 1.5t80 2q4 18 6.5 40t4 44t2 42.5t0.5 35.5v35h-332v85h430v-101q0 -14 -1 -35t-2.5 -45t-4 -49t-6.5 -47q25 2 49 3.5t50 3.5z M704 246v536h98v-536h-98zM704 -53v82h-407v-82h407z" />
<glyph unicode="&#xadd3;" d="M644 383q-34 -3 -67 -6t-67 -5.5t-70 -4.5t-77 -3v-208h-98v205q-47 -1 -101 -1h-117v85h121t102.5 1t89 2t79.5 3q7 36 10.5 81.5t3.5 83.5v43h-332v85h430v-113q0 -35 -3.5 -83t-10.5 -91q24 2 48.5 4t50.5 4zM442 216h98v-77q0 -21 3 -36t12.5 -27t26 -23.5 t43.5 -25.5q33 -17 82.5 -39.5t124.5 -53.5l-38 -79q-66 28 -115 51t-83 40q-48 25 -71.5 40t-32.5 29q-9 -16 -31.5 -31.5t-74.5 -41.5q-33 -17 -81.5 -38.5t-114.5 -49.5l-40 80q74 30 124.5 52t83.5 40q26 14 42.5 26t25.5 25t12.5 27.5t3.5 34.5v77zM704 140v642h98 v-642h-98z" />
<glyph unicode="&#xaddc;" d="M245 -138v366h-213v84h591q15 73 21.5 139.5t6.5 132.5v54h-513v87h612v-118q0 -72 -7 -146t-21 -149h156v-84h-213v-366h-99v366h-222v-366h-99z" />
<glyph unicode="&#xade0;" d="M878 396v-84h-216v-226h-98v226h-142v-226h-98v226h-292v84h597q11 56 16 111t5 99v49h-507v85h607v-138q0 -41 -5 -96.5t-14 -109.5h147zM246 -44h528v-86h-627v297h99v-211z" />
<glyph unicode="&#xade4;" d="M878 458v-82h-232v-120h110v-240h-506v-81h533v-81h-630v241h506v80h-511v81h116v120h-232v82h600q10 50 14 96t4 87v31h-507v83h607v-118q0 -38 -4 -84.5t-12 -94.5h144zM363 256h184v120h-184v-120z" />
<glyph unicode="&#xadf8;" d="M878 67v-84h-846v84h846zM748 695v-136q0 -67 -2.5 -122.5t-7 -105t-11 -95.5t-15.5 -93l-99 12q19 98 27.5 186.5t8.5 182.5v85h-513v86h612z" />
<glyph unicode="&#xadf9;" d="M142 743h609v-142q0 -42 -5 -95t-15 -105h147v-84h-846v84h597q12 55 17 107t5 97v54h-509v84zM141 198h619v-347h-99v263h-520v84z" />
<glyph unicode="&#xadfc;" d="M878 361v-84h-846v84h596q12 58 17 118.5t5 105.5v65h-508v85h609v-154q0 -21 -1.5 -47.5t-4 -55.5t-6 -59t-8.5 -58h147zM253 -44h521v-86h-620v302h99v-216z" />
<glyph unicode="&#xadff;" d="M32 323v84h597q12 55 17 106.5t5 96.5v49h-509v84h609v-137q0 -42 -5 -94.5t-15 -104.5h147v-84h-846zM759 217v-85h-506v-186h522v-85h-621v356h605z" />
<glyph unicode="&#xae00;" d="M153 -146v247h506v87h-511v81h608v-247h-506v-87h533v-81h-630zM142 752h609v-113q0 -38 -5 -91t-13 -100h145v-84h-846v84h598q11 51 16 100.5t5 94.5v26h-509v83z" />
<glyph unicode="&#xae01;" d="M142 752h609v-113q0 -38 -5 -91t-13 -100h145v-84h-846v84h598q11 51 16 100.5t5 94.5v26h-509v83zM134 -144v250h203v89h-206v79h300v-245h-203v-92h61q55 0 103.5 2t102.5 10l7 -81q-57 -7 -115.5 -9.5t-118.5 -2.5h-134zM475 274h294v-424h-98v340h-196v84z" />
<glyph unicode="&#xae08;" d="M757 -139h-604v350h604v-350zM142 743h609v-142q0 -42 -5 -94.5t-15 -104.5h147v-84h-846v84h597q12 55 17 106.5t5 96.5v54h-509v84zM659 128h-408v-184h408v184z" />
<glyph unicode="&#xae09;" d="M757 249v-389h-604v389h98v-109h408v109h98zM878 415v-84h-846v84h600q11 54 15 104t4 94v51h-509v84h609v-139q0 -40 -4 -91.5t-14 -102.5h145zM659 -56v115h-408v-115h408z" />
<glyph unicode="&#xae0b;" d="M142 743h609v-164q0 -41 -5 -92t-14 -102h146v-84h-846v84h598q12 54 16.5 104t4.5 94v76h-509v84zM454 14q-4 -7 -11.5 -14t-20 -15t-32 -19t-47.5 -25q-37 -19 -87 -42.5t-116 -51.5l-41 80q73 32 123 54.5t87 42.5q31 16 50 29.5t29.5 26t13.5 25t3 28.5v89h99v-89 q0 -16 3 -29t13.5 -25.5t29 -25.5t50.5 -29q36 -19 87 -42t123 -54l-41 -79q-63 26 -114 49.5t-89 43.5q-28 14 -47.5 25t-32.5 19t-20 15t-10 13h-2z" />
<glyph unicode="&#xae0d;" d="M455 219q63 0 115.5 -11.5t91 -34t60 -55t21.5 -73.5v-36q0 -41 -21.5 -73.5t-60 -55t-91 -34t-115.5 -11.5t-115.5 11.5t-91 34t-60 55t-21.5 73.5v36q0 41 21.5 73.5t60 55t91 34t115.5 11.5zM142 742h609v-142q0 -42 -5 -95t-15 -105h147v-84h-846v84h597 q12 55 17 107t5 97v54h-509v84zM455 -84q40 0 75 7.5t60.5 21t40 31.5t14.5 39v24q0 21 -14.5 39t-40 31.5t-60.5 21t-75 7.5q-41 0 -75.5 -7.5t-60 -21t-40 -31.5t-14.5 -39v-24q0 -21 14.5 -39t40 -31.5t60 -21t75.5 -7.5z" />
<glyph unicode="&#xae14;" d="M103 689h472v-155q0 -26 -1.5 -59.5t-4.5 -69t-7.5 -70.5t-10.5 -65l-97 12q15 72 19 135.5t4 100.5v85h-374v86zM661 95q-63 -6 -129 -10.5t-139.5 -7.5t-157 -4.5t-181.5 -1.5v86q99 0 181.5 1t154.5 3.5t136 6.5t126 10zM709 -140v922h98v-922h-98z" />
<glyph unicode="&#xae30;" d="M71 140q80 47 135.5 83.5t92.5 67t58 57t31.5 53t13 55.5t2.5 65v91h-315v85h413v-177q0 -45 -2.5 -81.5t-14.5 -69t-35.5 -64t-66 -67.5t-106 -79t-154.5 -98zM697 -140v922h99v-922h-99z" />
<glyph unicode="&#xae31;" d="M402 644h-296v84h393v-145q0 -58 -17.5 -100.5t-62 -80t-120.5 -76t-194 -88.5l-37 80q106 44 171.5 77.5t101.5 63.5t48.5 61t12.5 70v54zM698 245v537h98v-537h-98zM189 197h607v-346h-99v261h-508v85z" />
<glyph unicode="&#xae34;" d="M402 639h-296v84h393v-162q0 -56 -16 -98t-59.5 -81t-120 -79t-196.5 -92l-39 80q107 47 172.5 81.5t101.5 65t48 60.5t12 68v73zM698 124v658h98v-658h-98zM319 -44h496v-86h-595v303h99v-217z" />
<glyph unicode="&#xae37;" d="M402 644h-296v84h393v-141q0 -58 -17.5 -100.5t-62 -80t-120.5 -76t-194 -88.5l-37 80q106 44 171.5 77.5t101.5 63.5t48.5 61t12.5 70v50zM698 258v524h98v-524h-98zM798 213v-85h-476v-182h493v-85h-592v352h575z" />
<glyph unicode="&#xae38;" d="M402 659h-296v83h393v-122q0 -59 -18 -101.5t-63 -79t-122 -71.5t-194 -79l-34 80q106 40 171.5 70.5t101.5 59t48.5 58t12.5 68.5v34zM698 321v461h98v-461h-98zM225 -146v251h474v88h-479v82h576v-250h-474v-89h500v-82h-597z" />
<glyph unicode="&#xae3a;" d="M402 659h-296v83h393v-122q0 -59 -18 -101.5t-63 -78.5t-122 -71t-194 -79l-34 80q106 40 171.5 70.5t101.5 58.5t48.5 57.5t12.5 68.5v34zM158 -144v248h196v85h-199v80h293v-243h-196v-88h34q24 0 44.5 0.5t41 2t42.5 4t48 5.5l7 -82q-98 -12 -204 -12h-107zM698 315 v467h98v-467h-98zM506 -144v413h290v-413h-290zM703 189h-105v-253h105v253z" />
<glyph unicode="&#xae40;" d="M402 644h-296v84h393v-140q0 -58 -17.5 -100.5t-62 -80t-120.5 -76t-194 -88.5l-37 80q106 44 171.5 77.5t101.5 63.5t48.5 61t12.5 70v49zM698 264v518h98v-518h-98zM796 219v-358h-575v358h575zM319 -55h379v190h-379v-190z" />
<glyph unicode="&#xae41;" d="M796 264v-404h-575v404h98v-117h379v117h98zM402 644h-296v84h393v-122q0 -59 -18 -101.5t-63 -79t-122 -71.5t-194 -79l-34 80q106 40 171.5 70.5t101.5 59t48.5 58t12.5 68.5v33zM698 309v473h98v-473h-98zM698 -56v120h-379v-120h379z" />
<glyph unicode="&#xae43;" d="M402 640h-296v84h393v-160q0 -56 -16 -98t-59.5 -81t-120 -79t-196.5 -92l-39 80q107 47 172.5 81.5t101.5 65t48 60.5t12 68v71zM452 239h98v-92q0 -21 3 -36.5t12.5 -29t26 -25.5t43.5 -27q33 -18 83 -41t125 -54l-40 -79q-66 28 -114.5 52.5t-82.5 41.5 q-48 25 -71.5 42t-32.5 31q-9 -16 -31.5 -33.5t-74.5 -43.5q-33 -17 -81 -40t-114 -51l-42 80q74 30 125 53t84 42q26 15 42.5 28t25.5 26.5t12.5 28.5t3.5 35v92zM698 190v592h98v-592h-98z" />
<glyph unicode="&#xae45;" d="M402 641h-296v84h393v-145q0 -58 -17.5 -100.5t-62 -80t-120.5 -76t-194 -88.5l-37 80q106 44 171.5 77.5t101.5 63.5t48.5 61t12.5 70v54zM698 238v544h98v-544h-98zM234 50q0 36 19.5 68t56 56t89 38t118.5 14t118.5 -14t89 -38t56 -56t19.5 -68v-40q0 -36 -19.5 -68 t-56 -56t-89 -38t-118.5 -14t-118.5 14t-89 38t-56 56t-19.5 68v40zM703 44q0 18 -13 36.5t-37 32.5t-58.5 23t-77.5 9t-77.5 -9t-58.5 -23t-37 -32.5t-13 -36.5v-28q0 -18 13 -36.5t37 -32.5t58.5 -23t77.5 -9t77.5 9t58.5 23t37 32.5t13 36.5v28z" />
<glyph unicode="&#xae46;" d="M805 223v-83h-248v-4q0 -18 3.5 -33t13 -28t26 -25.5t42.5 -25.5q19 -9 39.5 -19t45 -20.5t54 -23t66.5 -27.5l-37 -79q-66 28 -114.5 49.5t-82.5 38.5q-48 25 -71.5 43.5t-32.5 32.5q-9 -16 -31.5 -34t-74.5 -44q-33 -17 -81 -38t-114 -49l-38 80q73 29 122.5 51.5 t82.5 39.5q50 27 67 52t17 59v4h-252v83h598zM402 644h-296v84h393v-137q0 -58 -17.5 -100.5t-62 -80.5t-120.5 -76t-194 -86l-37 80q106 43 171.5 76t101.5 63t48.5 60.5t12.5 69.5v47zM698 270v512h98v-512h-98z" />
<glyph unicode="&#xae4a;" d="M193 -57h111v204h-106v81h607v-81h-106v-204h111v-81h-617v81zM402 644h-296v84h393v-137q0 -58 -17.5 -100.5t-62 -80.5t-120.5 -76t-194 -86l-37 80q106 43 171.5 76t101.5 63t48.5 60.5t12.5 69.5v47zM698 273v509h98v-509h-98zM400 -57h203v204h-203v-204z" />
<glyph unicode="&#xae4c;" d="M761 -140h-96v922h96v-341h135v-86h-135v-495zM276 93q44 52 74.5 91.5t51.5 71.5t33 58.5t18.5 54t8 58.5t1.5 70v114h-114v85h207v-201q0 -48 -2 -85t-8.5 -68.5t-20 -62t-37 -66t-58.5 -78.5t-85 -101zM28 178q43 45 73.5 79.5t51 63t32 53.5t18 52t8 57.5t1.5 69.5 v58h-148v85h243v-145q0 -48 -2 -84.5t-8.5 -68t-20.5 -60t-37.5 -61t-58.5 -71.5t-85 -90z" />
<glyph unicode="&#xae4d;" d="M179 191h588v-340h-99v255h-489v85zM891 476h-124v-237h-95v543h95v-220h124v-86zM464 644h-118v84h210v-119q0 -52 -4 -91t-24 -77t-62.5 -82t-118.5 -105l-60 67q63 52 98.5 87.5t53 66.5t21.5 64t4 80v25zM209 644h-140v84h234v-111q0 -49 -7.5 -84t-30.5 -69 t-65 -71.5t-110 -90.5l-56 69q62 47 97 78.5t52.5 58t21.5 53.5t4 65v18z" />
<glyph unicode="&#xae4e;" d="M672 249v533h95v-216h124v-86h-124v-231h-95zM464 644h-118v84h210v-113q0 -52 -4 -91t-24 -77t-62.5 -82t-118.5 -105l-60 67q63 52 98.5 87.5t53 66.5t21.5 64t4 80v19zM209 644h-140v84h234v-105q0 -49 -7.5 -84t-30.5 -69t-65 -71.5t-110 -90.5l-56 69q62 47 97 78.5 t52.5 58t21.5 53.5t4 65v12zM137 201h307v-350h-98v265h-209v85zM482 201h285v-350h-98v265h-187v85z" />
<glyph unicode="&#xae50;" d="M891 433h-124v-309h-95v658h95v-263h124v-86zM301 -44h491v-86h-590v298h99v-212zM464 639h-118v84h210v-142q0 -52 -4 -91t-24 -77t-62.5 -82t-118.5 -105l-60 67q63 52 98.5 87.5t53 66.5t21.5 64t4 80v48zM209 639h-140v84h234v-134q0 -49 -7.5 -84t-30.5 -69 t-65 -71.5t-110 -90.5l-56 69q62 47 97 78.5t52.5 58t21.5 53.5t4 65v41z" />
<glyph unicode="&#xae54;" d="M194 -146v249h476v86h-481v82h578v-248h-476v-87h502v-82h-599zM891 508h-124v-191h-95v465h95v-188h124v-86zM346 660v82h210v-86q0 -52 -3.5 -90.5t-23.5 -75t-62.5 -78.5t-121.5 -101l-58 69q62 48 97.5 80.5t53 61.5t22 60.5t4.5 77.5h-118zM69 660v82h234v-84 q0 -49 -7 -83t-29.5 -65t-65 -66t-112.5 -87l-54 71q62 44 96.5 72.5t52 52.5t21.5 48t4 59h-140z" />
<glyph unicode="&#xae56;" d="M484 -144v411h283v-411h-283zM141 -144v247h191v84h-194v80h288v-242h-191v-87h29q24 0 44.5 0.5t41 2t42.5 4t48 5.5l7 -82q-98 -12 -204 -12h-102zM672 313v469h95v-188h124v-86h-124v-195h-95zM346 660v82h210v-86q0 -52 -3.5 -90.5t-23.5 -75t-62.5 -78.5 t-121.5 -101l-58 69q62 48 97.5 80.5t53 61.5t22 60.5t4.5 77.5h-118zM69 660v82h234v-84q0 -49 -7 -83t-29.5 -65t-65 -66t-112.5 -87l-54 71q62 44 96.5 72.5t52 52.5t21.5 48t4 59h-140zM674 187h-98v-251h98v251z" />
<glyph unicode="&#xae5c;" d="M767 213v-352h-564v352h564zM301 -55h368v184h-368v-184zM891 479h-124v-221h-95v524h95v-217h124v-86zM464 644h-118v84h210v-113q0 -52 -4 -91t-24 -77t-62.5 -82t-118.5 -105l-60 67q63 52 98.5 87.5t53 66.5t21.5 64t4 80v19zM209 644h-140v84h234v-105 q0 -49 -7.5 -84t-30.5 -69t-65 -71.5t-110 -90.5l-56 69q62 47 97 78.5t52.5 58t21.5 53.5t4 65v12z" />
<glyph unicode="&#xae5d;" d="M767 257v-397h-564v397h98v-114h368v114h98zM891 495h-124v-193h-95v480h95v-201h124v-86zM464 645h-118v83h210v-101q0 -52 -3.5 -90.5t-23.5 -75t-62.5 -78.5t-121.5 -101l-58 69q63 48 99 81t53 62.5t21 62t4 80.5v8zM209 645h-140v83h234v-99q0 -49 -7 -83t-29.5 -65 t-65 -66t-112.5 -87l-54 71q63 45 98.5 74t52 53.5t20 49.5t3.5 62v7zM669 -56v116h-368v-116h368z" />
<glyph unicode="&#xae5f;" d="M437 227h50h48v-80q0 -21 3 -36.5t12.5 -29t26 -25.5t43.5 -27q33 -18 83 -41t125 -54l-40 -79q-66 28 -114.5 52.5t-82.5 41.5q-48 25 -71.5 42t-32.5 31q-9 -16 -31.5 -33.5t-74.5 -43.5q-33 -17 -81 -40t-114 -51l-42 80q74 30 125 53t84 42q26 15 42.5 28t25.5 26.5 t12.5 28.5t3.5 35v80zM891 473h-124v-283h-95v592h95v-223h124v-86zM464 644h-118v84h210v-119q0 -52 -4 -91t-24 -77t-62.5 -82t-118.5 -105l-60 67q63 52 98.5 87.5t53 66.5t21.5 64t4 80v25zM209 644h-140v84h234v-111q0 -49 -7.5 -84t-30.5 -69t-65 -71.5t-110 -90.5 l-56 69q62 47 97 78.5t52.5 58t21.5 53.5t4 65v18z" />
<glyph unicode="&#xae60;" d="M692 223v-80q0 -20 1.5 -34t6 -26t14 -24t24.5 -26q26 -24 59 -52t72 -57l-54 -68q-36 27 -70.5 56.5t-54.5 46.5q-20 18 -30.5 31t-15.5 21q-5 -9 -13.5 -21t-25.5 -29q-25 -24 -57.5 -52t-66.5 -54q-34 26 -66.5 54t-57.5 52q-17 17 -25.5 29t-13.5 21q-5 -8 -15.5 -21 t-30.5 -31q-20 -17 -54.5 -46.5t-70.5 -56.5l-54 68q39 29 72 57t59 52q15 14 24.5 26t14 24t6 26t1.5 34v80h96v-80q0 -21 1.5 -35.5t5.5 -26.5t12 -23.5t22 -26.5q14 -16 32 -32t42 -37q24 21 42 37t32 32q13 15 21.5 26.5t12.5 23.5t5.5 26.5t1.5 35.5v80h96zM672 274 v508h95v-204h124v-86h-124v-218h-95zM464 645h-118v84h210v-112q0 -52 -4 -91t-24 -77t-62.5 -82t-118.5 -105l-60 67q63 52 98.5 87.5t53 66.5t21.5 64t4 80v18zM209 645h-140v84h234v-104q0 -49 -7.5 -84t-30.5 -69t-65 -71.5t-110 -90.5l-56 69q62 47 97 78.5t52.5 58 t21.5 53.5t4 65v11z" />
<glyph unicode="&#xae61;" d="M213 46q0 36 19 67.5t55 55.5t87.5 37.5t117.5 13.5t117.5 -13.5t87.5 -37.5t55 -55.5t19 -67.5v-38q0 -36 -19 -67.5t-55 -55.5t-87.5 -37.5t-117.5 -13.5t-117.5 13.5t-87.5 37.5t-55 55.5t-19 67.5v38zM674 40q0 18 -12.5 35.5t-36.5 32t-57.5 23t-75.5 8.5 t-75.5 -8.5t-57.5 -23t-36.5 -32t-12.5 -35.5v-26q0 -18 12.5 -35.5t36.5 -32t57.5 -23t75.5 -8.5t75.5 8.5t57.5 23t36.5 32t12.5 35.5v26zM891 483h-124v-251h-95v550h95v-213h124v-86zM464 641h-118v84h210v-123q0 -52 -4 -91t-24 -77t-62.5 -82t-118.5 -105l-60 67 q63 52 98.5 87.5t53 66.5t21.5 64t4 80v29zM209 641h-140v84h234v-115q0 -49 -7.5 -84t-30.5 -69t-65 -71.5t-110 -90.5l-56 69q62 47 97 78.5t52.5 58t21.5 53.5t4 65v22z" />
<glyph unicode="&#xae65;" d="M768 250v-83h-467v-74h458v-81h-458v-75h483v-83h-582v396h566zM891 509h-124v-213h-95v486h95v-187h124v-86zM346 660v82h210v-86q0 -52 -3.5 -90.5t-23.5 -75t-62.5 -78.5t-121.5 -101l-58 69q62 48 97.5 80.5t53 61.5t22 60.5t4.5 77.5h-118zM69 660v82h234v-84 q0 -49 -7 -83t-29.5 -65t-65 -66t-112.5 -87l-54 71q62 44 96.5 72.5t52 52.5t21.5 48t4 59h-140z" />
<glyph unicode="&#xae68;" d="M838 -140h-92v503h-92v-458h-90v858h90v-314h92v333h92v-922zM228 103q38 51 65.5 88.5t46.5 67t30 54t17 49.5t8 53.5t2 65.5v126h-96v85h186v-214q0 -44 -2 -78t-9 -64t-20 -58.5t-34 -61.5t-52.5 -73.5t-74.5 -93.5zM6 176q40 47 68.5 82.5t47.5 64t29.5 53t15.5 49.5 t6.5 54t1.5 66v62h-122v85h214v-150q0 -44 -2 -78t-8.5 -64t-19.5 -58t-35 -60t-54 -71t-77 -90z" />
<glyph unicode="&#xae69;" d="M731 782h90v-546h-90v247h-96v-245h-87v532h87v-202h96v214zM211 188h610v-337h-99v252h-511v85zM389 640h-92v84h180v-127q0 -56 -6 -93t-24.5 -71t-54.5 -72t-96 -95l-58 62q52 50 82 83t45.5 62t19.5 60t4 77v30zM173 640h-107v84h197v-110q0 -49 -7 -83.5t-27.5 -67 t-57 -69.5t-96.5 -90l-56 62q56 49 87 81t46 59t18 54t3 66v14z" />
<glyph unicode="&#xae6c;" d="M731 782h90v-655h-90v333h-96v-311h-87v621h87v-226h96v238zM323 -44h515v-86h-614v300h99v-214zM389 635h-92v84h180v-148q0 -56 -6 -93t-24.5 -71t-54.5 -72t-96 -95l-58 62q52 50 82 83t45.5 62t19.5 60t4 77v51zM173 635h-107v84h197v-131q0 -49 -7 -83.5t-27.5 -67 t-57 -69.5t-96.5 -90l-56 62q56 49 87 81t46 59t18 54t3 66v35z" />
<glyph unicode="&#xae70;" d="M233 -146v248h492v84h-497v82h593v-246h-492v-86h515v-82h-611zM731 782h90v-467h-90v206h-96v-204h-87v453h87v-165h96v177zM297 655v82h180v-90q0 -56 -6 -93t-24.5 -71t-54.5 -72t-96 -95l-58 62q51 49 81 82t45.5 61.5t20 58.5t4.5 75h-92zM66 655v82h197v-73 q0 -49 -7 -83.5t-27.5 -67t-57 -69.5t-96.5 -90l-56 62q52 45 82 75.5t46 56t20.5 50t5.5 57.5h-107z" />
<glyph unicode="&#xae78;" d="M821 208v-347h-583v347h583zM731 782h90v-526h-90v235h-96v-233h-87v512h87v-194h96v206zM336 -55h387v179h-387v-179zM389 640h-92v84h180v-124q0 -56 -6 -93t-24.5 -71t-54.5 -72t-96 -95l-58 62q52 50 82 83t45.5 62t19.5 60t4 77v27zM173 640h-107v84h197v-107 q0 -49 -7 -83.5t-27.5 -67t-57 -69.5t-96.5 -90l-56 62q56 49 87 81t46 59t18 54t3 66v11z" />
<glyph unicode="&#xae79;" d="M821 254v-394h-583v394h98v-112h387v112h98zM731 782h90v-482h-90v208h-96v-206h-87v468h87v-177h96v189zM297 640v84h180v-88q0 -56 -6 -93t-24.5 -71t-54.5 -72t-96 -95l-58 62q51 49 80.5 81.5t45 60.5t20.5 58t5 73h-92zM66 640v84h197v-71q0 -49 -7 -83.5t-27.5 -67 t-57 -69.5t-96.5 -90l-56 62q51 45 81 75.5t46 55.5t21 48.5t6 55.5h-107zM723 -56v115h-387v-115h387z" />
<glyph unicode="&#xae7b;" d="M731 782h90v-591h-90v296h-96v-206h-87v489h87v-199h96v211zM455 227h98v-83q0 -21 3 -36.5t12.5 -29t26 -25.5t43.5 -27q33 -18 83 -41t125 -54l-40 -79q-66 28 -114.5 52.5t-82.5 41.5q-48 25 -71.5 42t-32.5 31q-9 -16 -31.5 -33.5t-74.5 -43.5q-33 -17 -81 -40 t-114 -51l-42 80q74 30 125 53t84 42q26 15 42.5 28t25.5 26.5t12.5 28.5t3.5 35v83zM389 635h-92v84h180v-136q0 -56 -6 -93t-24.5 -71t-54.5 -72t-96 -95l-58 62q52 50 82 83t45.5 62t19.5 60t4 77v39zM173 635h-107v84h197v-119q0 -49 -7 -83.5t-27.5 -67t-57 -69.5 t-96.5 -90l-56 62q56 49 87 81t46 59t18 54t3 66v23z" />
<glyph unicode="&#xae7c;" d="M713 224v-81q0 -20 1.5 -34t6 -26t14 -24t24.5 -26q26 -24 59 -52t72 -57l-54 -68q-36 27 -70.5 56.5t-54.5 46.5q-20 18 -30.5 31t-15.5 21q-5 -9 -13.5 -21t-25.5 -29q-25 -24 -57.5 -52t-66.5 -54q-34 26 -66.5 54t-57.5 52q-17 17 -25.5 29t-13.5 21q-5 -8 -15.5 -21 t-30.5 -31q-20 -17 -54.5 -46.5t-70.5 -56.5l-54 68q39 29 72 57t59 52q15 14 24.5 26t14 24t6 26t1.5 34v81h96v-81q0 -21 1.5 -35.5t5.5 -26.5t12 -23.5t22 -26.5q14 -16 32 -32t42 -37q24 21 42 37t32 32q13 15 21.5 26.5t12.5 23.5t5.5 26.5t1.5 35.5v81h96zM731 782h90 v-518h-90v230h-96v-216h-87v492h87v-191h96v203zM389 640h-92v84h180v-123q0 -56 -6 -93t-24.5 -71t-54.5 -72t-96 -95l-58 62q52 50 82 83t45.5 62t19.5 60t4 77v26zM173 640h-107v84h197v-106q0 -49 -7 -83.5t-27.5 -67t-57 -69.5t-96.5 -90l-56 62q56 49 87 81t46 59 t18 54t3 66v10z" />
<glyph unicode="&#xae7d;" d="M247 42q0 36 20.5 67t58 53.5t91 35t120.5 12.5t120.5 -13t91 -35.5t58 -53t20.5 -66.5v-40q0 -36 -20.5 -67t-58 -53.5t-91 -35t-120.5 -12.5t-120.5 12.5t-91 35t-58 53.5t-20.5 67v40zM731 782h90v-560h-90v267h-96v-228h-87v509h87v-196h96v208zM730 36q0 18 -14 35 t-39.5 29.5t-61 20.5t-78.5 8t-78.5 -8t-61 -20.5t-39.5 -29.5t-14 -35v-27q0 -18 14 -35t39.5 -30t61 -21t78.5 -8t78.5 8t61 20.5t39.5 29.5t14 35v28zM389 637h-92v84h180v-135q0 -56 -6 -93t-24.5 -71t-54.5 -72t-96 -95l-58 62q52 50 82 83t45.5 62t19.5 60t4 77v38z M173 637h-107v84h197v-118q0 -49 -7 -83.5t-27.5 -67t-57 -69.5t-96.5 -90l-56 62q56 49 87 81t46 59t18 54t3 66v22z" />
<glyph unicode="&#xae84;" d="M896 490h-135v-171h135v-86h-135v-373h-96v922h96v-206h135v-86zM276 93q44 52 74.5 91.5t51.5 71.5t33 58.5t18.5 54t8 58.5t1.5 70v114h-114v85h207v-201q0 -48 -2 -85t-8.5 -68.5t-20 -62t-37 -66t-58.5 -78.5t-85 -101zM28 178q43 45 73.5 79.5t51 63t32 53.5t18 52 t8 57.5t1.5 69.5v58h-148v85h243v-145q0 -48 -2 -84.5t-8.5 -68t-20.5 -60t-37.5 -61t-58.5 -71.5t-85 -90z" />
<glyph unicode="&#xae85;" d="M162 191h588v-340h-99v255h-489v85zM880 569h-130v-101h130v-85h-130v-144h-94v543h94v-128h130v-85zM456 644h-118v84h210v-121q0 -52 -4 -91t-24 -77t-62.5 -82t-118.5 -105l-60 67q63 52 98.5 87.5t53 66.5t21.5 64t4 80v27zM201 644h-140v84h234v-112q0 -49 -7.5 -84 t-30.5 -69t-65 -71.5t-110 -90.5l-56 69q62 47 97 78.5t52.5 58t21.5 53.5t4 65v19z" />
<glyph unicode="&#xae8c;" d="M177 -146v249h476v86h-481v82h578v-248h-476v-87h502v-82h-599zM880 589h-130v-76h130v-85h-130v-111h-94v465h94v-108h130v-85zM336 660v82h210v-86q0 -52 -3.5 -90.5t-23.5 -75t-62.5 -78.5t-121.5 -101l-58 69q62 48 97.5 80.5t53 61.5t22 60.5t4.5 77.5h-118zM59 660 v82h234v-84q0 -49 -7 -83t-29.5 -65t-65 -66t-112.5 -87l-54 71q62 44 96.5 72.5t52 52.5t21.5 48t4 59h-140z" />
<glyph unicode="&#xaebc;" d="M710 -140v511h-146q-5 -38 -17 -71.5t-35.5 -71t-60.5 -84t-92 -110.5l-69 59q44 52 74.5 91.5t51.5 71.5t33 58.5t18.5 54t8 58.5t1.5 70v114h-116v85h209v-201v-37h140v324h96v-922h-96zM40 178q43 45 73.5 79.5t51 63t32 53.5t18 52t8 57.5t1.5 69.5v58h-150v85h245 v-145q0 -48 -2 -84.5t-8.5 -68t-20.5 -60t-37.5 -61t-58.5 -71.5t-85 -90z" />
<glyph unicode="&#xaebd;" d="M711 239v229h-158q-8 -23 -22.5 -45.5t-37.5 -48t-55.5 -55.5t-77.5 -66l-60 67q63 52 98.5 87.5t53 66.5t21.5 64t4 80v26h-119v84h211v-120v-28.5t-1 -26.5h143v229h95v-543h-95zM197 191h609v-340h-99v255h-510v85zM221 644h-141v84h235v-112q0 -49 -7.5 -84 t-30.5 -69t-65 -71.5t-110 -90.5l-56 69q62 47 97 78.5t52.5 58t21.5 53.5t4 65v19z" />
<glyph unicode="&#xaebe;" d="M711 252v216h-161q-9 -22 -23.5 -44t-37 -47t-54.5 -53.5t-75 -63.5l-60 67q63 52 98.5 87.5t53 66.5t21.5 64t4 80v19h-119v84h211v-113q0 -17 -0.5 -32.5t-1.5 -29.5h144v229h95v-530h-95zM221 644h-141v84h235v-105q0 -49 -7.5 -84t-30.5 -69t-65 -71.5t-110 -90.5 l-56 69q62 47 97 78.5t52.5 58t21.5 53.5t4 65v12zM171 204h310v-353h-98v268h-212v85zM519 204h287v-353h-98v268h-189v85z" />
<glyph unicode="&#xaec0;" d="M711 124v319h-157q-8 -23 -22 -46t-37 -48.5t-56 -55.5t-79 -67l-60 67q63 52 98.5 87.5t53 66.5t21.5 64t4 80v48h-119v84h211v-142q0 -14 -0.5 -27.5t-0.5 -25.5h143v254h95v-658h-95zM327 -44h498v-86h-597v298h99v-212zM221 639h-141v84h235v-135q0 -49 -7.5 -84 t-30.5 -69t-65 -71.5t-110 -90.5l-56 69q62 47 97 78.5t52.5 58t21.5 53.5t4 65v42z" />
<glyph unicode="&#xaec4;" d="M233 -146v249h476v86h-481v82h578v-248h-476v-87h502v-82h-599zM711 317v186h-163q-9 -20 -24 -40.5t-37.5 -43.5t-54 -49.5t-74.5 -58.5l-58 69q62 48 97.5 80.5t53 61.5t22 60.5t4.5 77.5h-119v82h211v-86v-36.5t-2 -32.5h144v195h95v-465h-95zM80 660v82h235v-84 q0 -49 -7 -83t-29.5 -65t-65 -66t-112.5 -87l-54 71q62 44 96.5 72.5t52 52.5t21.5 48t4 59h-141z" />
<glyph unicode="&#xaecc;" d="M806 213v-352h-577v352h577zM711 258v217h-158q-8 -23 -22.5 -45.5t-37.5 -48t-55.5 -55.5t-77.5 -66l-60 67q63 52 98.5 87.5t53 66.5t21.5 64t4 80v19h-119v84h211v-113v-28.5t-1 -26.5h143v222h95v-524h-95zM327 -55h381v184h-381v-184zM221 644h-141v84h235v-105 q0 -49 -7.5 -84t-30.5 -69t-65 -71.5t-110 -90.5l-56 69q62 47 97 78.5t52.5 58t21.5 53.5t4 65v12z" />
<glyph unicode="&#xaecd;" d="M806 257v-397h-577v397h98v-114h381v114h98zM711 302v178h-160q-9 -21 -23.5 -42t-37.5 -44.5t-55.5 -51t-76.5 -60.5l-58 69q63 48 99 81t53 62.5t21 62t4 80.5v8h-119v83h211v-101v-33.5t-1 -29.5h143v218h95v-480h-95zM221 645h-141v83h235v-99q0 -49 -7 -83 t-29.5 -65t-65 -66t-112.5 -87l-54 71q63 45 98.5 74t52 53.5t20 49.5t3.5 62v7zM708 -56v116h-381v-116h381z" />
<glyph unicode="&#xaecf;" d="M711 190v269h-162q-9 -21 -23.5 -43t-37 -46.5t-54 -53t-74.5 -62.5l-60 67q63 52 98.5 87.5t53 66.5t21.5 64t4 80v25h-119v84h211v-119v-34t-2 -31h144v238h95v-592h-95zM462 227h50h48v-80q0 -21 3 -36.5t12.5 -29t26 -25.5t43.5 -27q33 -18 83 -41t125 -54l-40 -79 q-66 28 -114.5 52.5t-82.5 41.5q-48 25 -71.5 42t-32.5 31q-9 -16 -31.5 -33.5t-74.5 -43.5q-33 -17 -81 -40t-114 -51l-42 80q74 30 125 53t84 42q26 15 42.5 28t25.5 26.5t12.5 28.5t3.5 35v80zM221 644h-141v84h235v-111q0 -49 -7.5 -84t-30.5 -69t-65 -71.5t-110 -90.5 l-56 69q62 47 97 78.5t52.5 58t21.5 53.5t4 65v18z" />
<glyph unicode="&#xaed0;" d="M711 274v205h-157q-8 -23 -22 -46t-37 -48.5t-56 -55.5t-79 -67l-60 67q63 52 98.5 87.5t53 66.5t21.5 64t4 80v18h-119v84h211v-112q0 -14 -0.5 -27.5t-0.5 -25.5h143v218h95v-508h-95zM711 223v-80q0 -20 1.5 -34t6 -26t14 -24t24.5 -26q26 -24 59 -52t72 -57l-54 -68 q-36 27 -70.5 56.5t-54.5 46.5q-20 18 -30.5 31t-15.5 21q-5 -9 -13.5 -21t-25.5 -29q-25 -24 -57.5 -52t-66.5 -54q-34 26 -66.5 54t-57.5 52q-17 17 -25.5 29t-13.5 21q-5 -8 -15.5 -21t-30.5 -31q-20 -17 -54.5 -46.5t-70.5 -56.5l-54 68q39 29 72 57t59 52 q15 14 24.5 26t14 24t6 26t1.5 34v80h96v-80q0 -21 1.5 -35.5t5.5 -26.5t12 -23.5t22 -26.5q14 -16 32 -32t42 -37q24 21 42 37t32 32q13 15 21.5 26.5t12.5 23.5t5.5 26.5t1.5 35.5v80h96zM221 645h-141v84h235v-104q0 -49 -7.5 -84t-30.5 -69t-65 -71.5t-110 -90.5l-56 69 q62 47 97 78.5t52.5 58t21.5 53.5t4 65v11z" />
<glyph unicode="&#xaed1;" d="M242 47q0 36 19.5 67.5t56 55t89 37t119.5 13.5t119.5 -13.5t89 -37t56 -55t19.5 -67.5v-40q0 -36 -19.5 -67.5t-56 -55t-89 -37t-119.5 -13.5t-119.5 13.5t-89 37t-56 55t-19.5 67.5v40zM711 232v238h-155q-8 -24 -21.5 -47.5t-36.5 -50t-57 -57t-81 -68.5l-60 67 q63 52 98.5 87.5t53 66.5t21.5 64t4 80v29h-119v84h211v-123v-24.5t-1 -22.5h143v227h95v-550h-95zM713 41q0 18 -13 35.5t-37.5 31.5t-59 22.5t-77.5 8.5t-77.5 -8.5t-59 -22.5t-37.5 -31.5t-13 -35.5v-28q0 -18 13 -35.5t37.5 -31.5t59 -22.5t77.5 -8.5t77.5 8.5t59 22.5 t37.5 31.5t13 35.5v28zM221 641h-141v84h235v-115q0 -49 -7.5 -84t-30.5 -69t-65 -71.5t-110 -90.5l-56 69q62 47 97 78.5t52.5 58t21.5 53.5t4 65v22z" />
<glyph unicode="&#xaed8;" d="M216 103q38 51 65.5 88.5t46.5 67t30 54t17 49.5t8 53.5t2 65.5v126h-86v85h176v-214v-33h97v318h90v-858h-90v454h-104q-6 -34 -17.5 -65t-33 -66t-54 -78t-80.5 -101zM838 -140h-92v922h92v-922zM9 179q39 46 67 80.5t46.5 63t29 52.5t15.5 49.5t6.5 54.5t1.5 66v62 h-122v85h214v-150q0 -44 -2 -78t-8.5 -64t-19.5 -58t-34.5 -59.5t-53 -70t-75.5 -88.5z" />
<glyph unicode="&#xaed9;" d="M389 640h-92v84h180v-127v-21t-1 -19h89v213h87v-532h-87v235h-101q-7 -23 -19.5 -44.5t-33 -45.5t-48.5 -52t-67 -65l-58 62q52 50 82 83t45.5 62t19.5 60t4 77v30zM211 188h610v-337h-99v252h-511v85zM731 782h90v-546h-90v546zM173 640h-107v84h197v-110 q0 -49 -7 -83.5t-27.5 -67t-57 -69.5t-96.5 -90l-56 62q56 49 87 81t46 59t18 54t3 66v14z" />
<glyph unicode="&#xaedc;" d="M389 635h-92v84h180v-148v-27h88v226h87v-621h-87v311h-98q-6 -26 -18 -48.5t-32.5 -47.5t-50 -55t-70.5 -69l-58 62q52 50 82 83t45.5 62t19.5 60t4 77v51zM323 -44h515v-86h-614v300h99v-214zM731 782h90v-655h-90v655zM173 635h-107v84h197v-131q0 -49 -7 -83.5 t-27.5 -67t-57 -69.5t-96.5 -90l-56 62q56 49 87 81t46 59t18 54t3 66v35z" />
<glyph unicode="&#xaee8;" d="M821 208v-347h-583v347h583zM389 640h-92v84h180v-124v-20t-1 -18h89v208h87v-512h-87v220h-101q-7 -23 -19.5 -45t-32.5 -46t-48.5 -52.5t-67.5 -65.5l-58 62q52 50 82 83t45.5 62t19.5 60t4 77v27zM336 -55h387v179h-387v-179zM173 640h-107v84h197v-107 q0 -49 -7 -83.5t-27.5 -67t-57 -69.5t-96.5 -90l-56 62q56 49 87 81t46 59t18 54t3 66v11zM731 782h90v-526h-90v526z" />
<glyph unicode="&#xaeeb;" d="M389 635h-92v84h180v-136v-29h88v216h87v-489h-87v189h-98q-6 -25 -18.5 -47.5t-32.5 -47.5t-49.5 -54.5t-70.5 -68.5l-58 62q52 50 82 83t45.5 62t19.5 60t4 77v39zM455 227h98v-83q0 -21 3 -36.5t12.5 -29t26 -25.5t43.5 -27q33 -18 83 -41t125 -54l-40 -79 q-66 28 -114.5 52.5t-82.5 41.5q-48 25 -71.5 42t-32.5 31q-9 -16 -31.5 -33.5t-74.5 -43.5q-33 -17 -81 -40t-114 -51l-42 80q74 30 125 53t84 42q26 15 42.5 28t25.5 26.5t12.5 28.5t3.5 35v83zM731 782h90v-591h-90v591zM173 635h-107v84h197v-119q0 -49 -7 -83.5 t-27.5 -67t-57 -69.5t-96.5 -90l-56 62q56 49 87 81t46 59t18 54t3 66v23z" />
<glyph unicode="&#xaeed;" d="M247 42q0 36 20.5 67t58 53.5t91 35t120.5 12.5t120.5 -13t91 -35.5t58 -53t20.5 -66.5v-40q0 -36 -20.5 -67t-58 -53.5t-91 -35t-120.5 -12.5t-120.5 12.5t-91 35t-58 53.5t-20.5 67v40zM389 637h-92v84h180v-135v-29h88v213h87v-509h-87v212h-98q-6 -25 -18.5 -47.5 t-32.5 -47.5t-49.5 -54.5t-70.5 -68.5l-58 62q52 50 82 83t45.5 62t19.5 60t4 77v38zM730 36q0 18 -14 35t-39.5 29.5t-61 20.5t-78.5 8t-78.5 -8t-61 -20.5t-39.5 -29.5t-14 -35v-27q0 -18 14 -35t39.5 -30t61 -21t78.5 -8t78.5 8t61 20.5t39.5 29.5t14 35v28zM731 782h90 v-560h-90v560zM173 637h-107v84h197v-118q0 -49 -7 -83.5t-27.5 -67t-57 -69.5t-96.5 -90l-56 62q56 49 87 81t46 59t18 54t3 66v22z" />
<glyph unicode="&#xaef4;" d="M710 -140v377h-145v85h145v161h-144q0 -45 -2 -80t-9 -66t-20.5 -60.5t-37 -64.5t-57.5 -77.5t-83 -99.5l-69 59q44 52 75 91.5t51.5 71.5t32 58.5t17.5 54t7.5 58t1.5 69.5v114h-114v85h207v-128h144v214h96v-922h-96zM40 179q43 45 73.5 79.5t50.5 63t31.5 53.5 t17.5 51.5t7.5 57t1.5 69.5v58h-148v85h243v-145q0 -48 -1.5 -84.5t-8 -67.5t-20 -59.5t-37 -61t-58.5 -71.5t-85 -90z" />
<glyph unicode="&#xaef8;" d="M712 124v211h-127v84h127v124h-115v84h115v155h94v-658h-94zM327 -44h498v-86h-597v298h99v-212zM472 639h-117v84h209v-142q0 -52 -4 -91t-24 -77t-62.5 -82t-118.5 -105l-60 67q63 52 98.5 87.5t53 66.5t21.5 64t4 80v48zM218 639h-139v84h233v-135q0 -49 -7.5 -84 t-30.5 -69t-65 -71.5t-110 -90.5l-56 69q62 47 97 78.5t52.5 58t21.5 53.5t4 65v42z" />
<glyph unicode="&#xaefc;" d="M233 -146v246h476v83h-481v82h578v-245h-476v-84h502v-82h-599zM712 311v106h-127v82h127v86h-115v82h115v115h94v-471h-94zM355 660v82h209v-86q0 -52 -3.5 -90.5t-23.5 -75t-62.5 -78.5t-121.5 -101l-58 69q62 48 97.5 80.5t53 61.5t22 60.5t4.5 77.5h-117zM79 660v82 h233v-84q0 -49 -7 -83t-29.5 -65t-65 -66t-112.5 -87l-54 71q62 44 96.5 72.5t52 52.5t21.5 48t4 59h-139z" />
<glyph unicode="&#xaf07;" d="M462 227h98v-80q0 -21 3 -36.5t12.5 -29t26 -25.5t43.5 -27q33 -18 83 -41t125 -54l-40 -79q-66 28 -114.5 52.5t-82.5 41.5q-48 25 -71.5 42t-32.5 31q-9 -16 -31.5 -33.5t-74.5 -43.5q-33 -17 -81 -40t-114 -51l-42 80q74 30 125 53t84 42q26 15 42.5 28t25.5 26.5 t12.5 28.5t3.5 35v80zM711 190v165h-126v84h126v118h-114v84h114v141h95v-592h-95zM472 644h-117v84h209v-119q0 -52 -4 -91t-24 -77t-62.5 -82t-118.5 -105l-60 67q63 52 98.5 87.5t53 66.5t21.5 64t4 80v25zM218 644h-139v84h233v-111q0 -49 -7.5 -84t-30.5 -69t-65 -71.5 t-110 -90.5l-56 69q62 47 97 78.5t52.5 58t21.5 53.5t4 65v18z" />
<glyph unicode="&#xaf08;" d="M711 223v-80q0 -20 1.5 -34t6 -26t14 -24t24.5 -26q26 -24 59 -52t72 -57l-54 -68q-36 27 -70.5 56.5t-54.5 46.5q-20 18 -30.5 31t-15.5 21q-5 -9 -13.5 -21t-25.5 -29q-25 -24 -57.5 -52t-66.5 -54q-34 26 -66.5 54t-57.5 52q-17 17 -25.5 29t-13.5 21q-5 -8 -15.5 -21 t-30.5 -31q-20 -17 -54.5 -46.5t-70.5 -56.5l-54 68q39 29 72 57t59 52q15 14 24.5 26t14 24t6 26t1.5 34v80h96v-80q0 -21 1.5 -35.5t5.5 -26.5t12 -23.5t22 -26.5q14 -16 32 -32t42 -37q24 21 42 37t32 32q13 15 21.5 26.5t12.5 23.5t5.5 26.5t1.5 35.5v80h96zM711 274 v111h-126v84h126v96h-114v84h114v133h95v-508h-95zM472 645h-117v84h209v-112q0 -52 -4 -91t-24 -77t-62.5 -82t-118.5 -105l-60 67q63 52 98.5 87.5t53 66.5t21.5 64t4 80v18zM218 645h-139v84h233v-104q0 -49 -7.5 -84t-30.5 -69t-65 -71.5t-110 -90.5l-56 69 q62 47 97 78.5t52.5 58t21.5 53.5t4 65v11z" />
<glyph unicode="&#xaf0d;" d="M808 250v-83h-478v-74h469v-81h-469v-75h494v-83h-593v396h577zM712 296v121h-127v82h127v86h-115v82h115v115h94v-486h-94zM355 660v82h209v-86q0 -52 -3.5 -90.5t-23.5 -75t-62.5 -78.5t-121.5 -101l-58 69q62 48 97.5 80.5t53 61.5t22 60.5t4.5 77.5h-117zM79 660v82 h233v-84q0 -49 -7 -83t-29.5 -65t-65 -66t-112.5 -87l-54 71q62 44 96.5 72.5t52 52.5t21.5 48t4 59h-139z" />
<glyph unicode="&#xaf10;" d="M214 105q38 51 65.5 88t46 66.5t29.5 54t17 49t7.5 53t1.5 65.5v126h-84v85h174v-136h105v207h90v-858h-90v329h-159q-21 -36 -54 -79.5t-82 -103.5zM838 -140h-92v922h92v-922zM9 181q59 69 92 113.5t49 81.5t19.5 75t3.5 94v62h-120v85h212v-150q0 -66 -5 -111 t-24.5 -87.5t-57.5 -92.5t-104 -125zM576 319v152h-105q0 -48 -3 -84t-13 -68h121z" />
<glyph unicode="&#xaf2c;" d="M878 67v-84h-846v84h385v293h99v-293h362zM766 694v-94q0 -94 -8.5 -191t-29.5 -194l-93 17q20 92 27.5 170.5t7.5 142.5v63h-217v86h313zM389 694v-94q0 -93 -19.5 -189t-64.5 -199l-89 29q42 97 60 173.5t18 149.5v44h-187v86h282z" />
<glyph unicode="&#xaf2d;" d="M878 349v-84h-846v84h385v171h98v-171h363zM141 166h619v-315h-99v231h-520v84zM760 743v-52q0 -77 -10 -150.5t-24 -129.5l-94 17q17 57 24.5 108t7.5 100v23h-213v84h309zM391 743v-47q0 -73 -15 -146.5t-41 -136.5l-88 19q21 57 35 109.5t14 101.5v16h-183v84h278z " />
<glyph unicode="&#xaf30;" d="M878 308v-84h-846v84h385v187h98v-187h363zM253 -44h521v-86h-620v279h99v-193zM760 735v-79q0 -78 -10 -152.5t-24 -130.5l-94 17q17 57 24.5 109t7.5 102v49h-213v85h309zM391 735v-74q0 -75 -15 -149t-41 -137l-88 19q21 57 35 110.5t14 103.5v42h-183v85h278z" />
<glyph unicode="&#xaf32;" d="M878 393v-83h-846v83h385v151h98v-151h363zM784 -47q0 -25 -13 -45.5t-36 -35.5t-55 -23.5t-71 -8.5t-71 8.5t-55 23.5t-36 35.5t-13 45.5v25q0 25 13 45.5t36 35.5t55 23.5t71 8.5t71 -8.5t55 -23.5t36 -35.5t13 -45.5v-25zM233 -47h15q38 0 72.5 2t76.5 7l10 -83 q-48 -6 -88.5 -8.5t-82.5 -2.5h-100v351h97v-266zM760 753v-47q0 -67 -6.5 -140t-22.5 -131l-94 17q17 56 22 104t5 90v24h-213v83h309zM391 753v-42q0 -63 -12 -135.5t-39 -138.5l-88 19q22 55 33 105t11 92v17h-183v83h278zM819 119h-420v79h161v73h98v-73h161v-79z M696 -27q0 20 -23 33t-64 13t-64 -13t-23 -33v-15q0 -20 23 -33t64 -13t64 13t23 33v15z" />
<glyph unicode="&#xaf34;" d="M154 -146v239h506v78h-511v81h608v-238h-506v-79h533v-81h-630zM878 411v-83h-846v83h385v142h98v-142h363zM760 753v-41q0 -63 -7.5 -133t-21.5 -127l-94 17q16 54 21.5 100t5.5 83v18h-213v83h309zM391 753v-36q0 -59 -12.5 -129t-38.5 -134l-88 19q20 53 32 101t12 85 v11h-183v83h278z" />
<glyph unicode="&#xaf3c;" d="M757 -139h-604v323h604v-323zM878 357v-84h-846v84h385v163h98v-163h363zM659 101h-408v-157h408v157zM760 743v-46q0 -77 -10 -151t-24 -130l-94 17q17 58 24.5 110.5t7.5 94.5v21h-213v84h309zM391 743v-41q0 -73 -15 -147t-41 -137l-88 19q22 57 35.5 111.5t13.5 96.5 v14h-183v84h278z" />
<glyph unicode="&#xaf3d;" d="M757 225v-365h-604v365h98v-97h408v97h98zM878 378v-83h-846v83h385v164h98v-164h363zM760 748v-54q0 -63 -7.5 -133.5t-21.5 -127.5l-94 17q8 27 13 53.5t8 51.5t4.5 45.5t1.5 35.5v29h-213v83h309zM391 748v-49q0 -59 -12.5 -129.5t-38.5 -134.5l-88 19q10 26 18 53.5 t14 52.5t9 46.5t3 36.5v22h-183v83h278zM659 -56v103h-408v-103h408z" />
<glyph unicode="&#xaf3f;" d="M878 347v-84h-846v84h385v168h98v-168h363zM454 14q-4 -7 -11.5 -14t-20 -15t-32 -19t-47.5 -25q-37 -19 -87 -42.5t-116 -51.5l-41 80q73 32 123 54.5t87 42.5q31 16 50 29.5t29.5 26t13.5 25t3 28.5v65h99v-65q0 -16 3 -29t13.5 -25.5t29 -25.5t50.5 -29q36 -19 87 -42 t123 -54l-41 -79q-63 26 -114 49.5t-89 43.5q-28 14 -47.5 25t-32.5 19t-20 15t-10 13h-2zM760 743v-54q0 -77 -9 -147.5t-25 -134.5l-94 17q18 63 25 114t7 96v25h-213v84h309zM391 743v-49q0 -73 -14.5 -143t-41.5 -142l-88 19q23 63 36 115.5t13 97.5v18h-183v84h278z " />
<glyph unicode="&#xaf41;" d="M455 204q61 0 113.5 -11.5t91.5 -33t61 -52.5t22 -70v-36q0 -39 -22 -70t-61 -52.5t-91.5 -33t-113.5 -11.5t-113.5 11.5t-91.5 33t-61 52.5t-22 70v36q0 39 22 70t61 52.5t91.5 33t113.5 11.5zM878 353v-84h-846v84h385v167h98v-167h363zM455 -85q40 0 74.5 7t60 19.5 t40.5 29.5t15 36v24q0 19 -15 36t-40.5 29.5t-60 19.5t-74.5 7t-74.5 -7t-60 -19.5t-40.5 -29.5t-15 -36v-24q0 -19 15 -36t40.5 -29.5t60 -19.5t74.5 -7zM760 743v-51q0 -77 -10 -150.5t-24 -129.5l-94 17q17 57 24.5 108t7.5 100v22h-213v84h309zM391 743v-46 q0 -73 -15 -146.5t-41 -136.5l-88 19q21 57 35 109.5t14 101.5v15h-183v84h278z" />
<glyph unicode="&#xaf42;" d="M777 198v-81h-273q0 -33 16.5 -56t67.5 -47q36 -17 84.5 -35.5t120.5 -44.5l-36 -79q-56 20 -109 41t-87 36q-53 23 -75 39.5t-30 32.5q-8 -16 -30.5 -33.5t-75.5 -40.5q-35 -16 -88 -36t-109 -40l-36 80q72 26 120.5 44.5t84.5 35.5q25 12 41.5 23.5t25.5 23.5t13 25.5 t4 30.5h-273v81h644zM878 369v-84h-846v84h385v151h98v-151h363zM760 743v-49q0 -33 -2 -68.5t-6 -70t-9.5 -67t-12.5 -60.5l-93 23q16 52 21.5 101t5.5 87v20h-213v84h309zM391 743v-44q0 -63 -13 -134.5t-39 -134.5l-87 25q20 51 32 102t12 89v13h-183v84h278z" />
<glyph unicode="&#xaf43;" d="M766 185v-79h-261q1 -16 5.5 -27.5t14 -21t25 -19t39.5 -20.5q23 -11 45 -21t46 -20t52 -20.5t62 -21.5l-36 -80q-57 20 -106 40t-91 40q-41 20 -67.5 35.5t-37.5 33.5q-11 -18 -38 -34t-68 -36q-42 -20 -91 -40t-106 -40l-37 80q67 23 115 43t91 41q23 11 38.5 20.5 t25 19t14 21t5.5 27.5h-261v79h262v90h99v-90h261zM878 401v-83h-846v83h385v152h98v-152h363zM760 753v-44q0 -63 -7.5 -133t-21.5 -127l-94 17q16 54 21.5 100t5.5 83v21h-213v83h309zM391 753v-39q0 -59 -12.5 -129t-38.5 -134l-88 19q20 53 32 101t12 85v14h-183v83h278 z" />
<glyph unicode="&#xaf48;" d="M777 -140h-96v922h96v-341h133v-86h-133v-495zM631 91q-64 -6 -120.5 -10t-122.5 -6.5t-150.5 -3.5t-202.5 -1v86q79 0 142 0.5t117 1.5v264h98v-261q63 3 117.5 7t113.5 9zM50 692h239v-110q0 -32 -3.5 -71.5t-9.5 -80t-15 -78.5t-20 -67l-94 20q24 72 35.5 139 t11.5 122v41h-144v85zM331 692h239v-123q0 -25 -1 -59.5t-4 -72.5t-7.5 -77t-11.5 -72l-93 15q17 80 20.5 146.5t3.5 103.5v54h-146v85z" />
<glyph unicode="&#xaf49;" d="M163 160h609v-309h-99v224h-510v85zM629 270q-62 -6 -119.5 -10.5t-125 -7t-152.5 -4t-200 -1.5v85h147t120 2v175h98v-172q57 2 110 6t114 9zM677 208v574h95v-245h129v-86h-129v-243h-95zM60 737h233v-91q0 -60 -10 -117.5t-33 -120.5l-92 21q21 56 31 103t10 90v31 h-139v84zM333 737h233v-90q0 -54 -5 -110.5t-20 -121.5l-93 16q16 63 21 107.5t5 83.5v31h-141v84z" />
<glyph unicode="&#xaf50;" d="M172 -146v238h502v71h-507v82h604v-233h-506v-76h533v-82h-626zM629 331q-62 -6 -119.5 -10.5t-125 -7t-152.5 -4t-200 -1.5v82h147t120 2v151h98v-148q57 2 110 6t114 9zM677 279v503h95v-195h129v-86h-129v-222h-95zM60 747h233v-59q0 -60 -10 -117.5t-33 -120.5 l-92 21q21 56 31 103t10 90v1h-139v82zM333 747h233v-58q0 -54 -5 -110.5t-20 -121.5l-93 16q16 63 21 107.5t5 83.5v1h-141v82z" />
<glyph unicode="&#xaf5c;" d="M687 198v-55q0 -20 1.5 -34t6 -26t14 -24t24.5 -26q26 -24 59 -52t72 -57l-54 -68q-36 27 -70.5 56.5t-54.5 46.5q-20 18 -30.5 31t-15.5 21q-5 -9 -13.5 -21t-25.5 -29q-25 -24 -57.5 -52t-66.5 -54q-34 26 -66.5 54t-57.5 52q-17 17 -25.5 29t-13.5 21q-5 -8 -15.5 -21 t-30.5 -31q-20 -17 -54.5 -46.5t-70.5 -56.5l-54 68q39 29 72 57t59 52q15 14 24.5 26t14 24t6 26t1.5 34v55h96v-55q0 -21 1.5 -35.5t5.5 -26.5t12 -23.5t22 -26.5q14 -16 32 -32t42 -37q24 21 42 37t32 32q13 15 21.5 26.5t12.5 23.5t5.5 26.5t1.5 35.5v55h96zM629 280 q-62 -6 -119.5 -10.5t-125 -7t-152.5 -4t-200 -1.5v85h147t120 2v170h98v-167q57 2 110 6t114 9zM677 247v535h95v-212h129v-86h-129v-237h-95zM60 737h233v-86q0 -60 -10 -117.5t-33 -120.5l-92 21q21 56 31 103t10 90v26h-139v84zM333 737h233v-85q0 -54 -5 -110.5 t-20 -121.5l-93 16q16 63 21 107.5t5 83.5v26h-141v84z" />
<glyph unicode="&#xaf5d;" d="M196 33q0 36 20 65.5t57.5 51.5t91 34t119.5 12t119 -12t90.5 -34t58 -51.5t20.5 -65.5v-32q0 -36 -20.5 -65.5t-58 -51.5t-90.5 -34t-119 -12t-119.5 12t-91 34t-57.5 51.5t-20 65.5v32zM629 272q-62 -6 -119.5 -10.5t-125 -7t-152.5 -4t-200 -1.5v85h147t120 2v173h98 v-170q57 2 110 6t114 9zM677 221v561h95v-241h129v-86h-129v-234h-95zM293 7q0 -15 12.5 -31t37 -29t60 -21.5t81.5 -8.5t81.5 8.5t60 21.5t37 29t12.5 31v20q0 15 -12.5 31t-37 29t-60 21.5t-81.5 8.5t-81.5 -8.5t-60 -21.5t-37 -29t-12.5 -31v-20zM60 737h233v-91 q0 -60 -10 -117.5t-33 -120.5l-92 21q21 56 31 103t10 90v31h-139v84zM333 737h233v-90q0 -54 -5 -110.5t-20 -121.5l-93 16q16 63 21 107.5t5 83.5v31h-141v84z" />
<glyph unicode="&#xaf64;" d="M843 -140h-92v485h-89v-440h-90v858h90v-332h89v351h92v-922zM536 99q-96 -6 -218 -8.5t-279 -2.5v86h119.5t104.5 1v244h92v-243q51 2 94 3.5t83 3.5zM54 685h207v-114q0 -32 -3.5 -70.5t-10 -77.5t-15 -76t-18.5 -67l-90 18q11 36 19.5 72t14.5 69.5t9 63t3 52.5v45 h-116v85zM298 685h207v-127q0 -25 -1.5 -59t-4.5 -71t-7.5 -74.5t-11.5 -68.5l-89 13q7 36 12 71.5t8 68t4 59.5t1 45v58h-118v85z" />
<glyph unicode="&#xaf65;" d="M739 782h90v-569h-90v244h-89v-242h-88v555h88v-228h89v240zM205 166h624v-315h-99v230h-525v85zM528 265q-88 -8 -214.5 -14t-279.5 -6v84q125 0 224 3v164h90v-161q52 2 95.5 5.5t78.5 6.5zM52 727h205v-80q0 -60 -10.5 -124t-34.5 -127l-88 20q20 54 32 110.5 t12 101.5v15h-116v84zM291 727h203v-91q0 -50 -5.5 -111.5t-22.5 -121.5l-87 15q16 63 22 109.5t6 84.5v31h-116v84z" />
<glyph unicode="&#xaf79;" d="M240 25q0 36 21 65.5t59.5 50t93 32t121.5 11.5t121.5 -11.5t93 -32.5t59.5 -50.5t21 -64.5v-32q0 -35 -21 -64.5t-59.5 -50.5t-93 -32.5t-121.5 -11.5t-121.5 11t-93 32t-59.5 50.5t-21 65.5v32zM739 782h90v-585h-90v269h-89v-237h-88v541h88v-219h89v231zM733 18 q0 17 -15 32.5t-41.5 27t-62.5 18.5t-79 7t-79 -7t-62.5 -18.5t-41.5 -27t-15 -32.5v-18q0 -17 15 -32.5t41.5 -27t62.5 -18.5t79 -7t79 7t62.5 18.5t41.5 27t15 32.5v18zM528 270q-88 -8 -214.5 -14t-279.5 -6v84q125 0 224 3v159h90v-156q52 2 95.5 5.5t78.5 6.5zM52 727 h205v-75q0 -60 -10.5 -124t-34.5 -127l-88 20q20 54 32 110.5t12 101.5v10h-116v84zM291 727h203v-86q0 -50 -5.5 -111.5t-22.5 -121.5l-87 15q16 63 22 109.5t6 84.5v26h-116v84z" />
<glyph unicode="&#xaf80;" d="M717 -140v922h96v-922h-96zM666 94q-63 -6 -130 -10.5t-142 -7.5t-159.5 -4.5t-182.5 -1.5v86q77 -1 144 -0.5t127 2.5v264h98v-261q64 2 121.5 6.5t114.5 9.5zM77 692h240v-111q0 -32 -3.5 -71.5t-9.5 -80t-15 -78.5t-20 -67l-94 20q24 72 35.5 139t11.5 122v42h-145v85 zM359 692h240v-124q0 -25 -1 -59.5t-4 -72.5t-7.5 -77t-11.5 -72l-93 15q17 80 20.5 146.5t3.5 103.5v55h-147v85z" />
<glyph unicode="&#xaf84;" d="M303 -46h524v-85h-623v277h99v-192zM661 253q-62 -6 -121 -10.5t-128.5 -7t-156 -4t-201.5 -1.5v85h149.5t123.5 2v180h98v-177q59 2 113 6t115 9zM713 98v684h95v-684h-95zM82 732h234v-98q0 -60 -10 -117.5t-33 -120.5l-92 21q21 56 31 103t10 90v38h-140v84zM356 732 h234v-97q0 -54 -5 -110.5t-20 -121.5l-93 16q16 63 21 107.5t5 83.5v38h-142v84z" />
<glyph unicode="&#xaf88;" d="M209 -146v238h502v71h-507v82h604v-233h-506v-76h533v-82h-626zM661 331q-62 -6 -121 -10.5t-128.5 -7t-156 -4t-201.5 -1.5v82h149.5t123.5 2v151h98v-148q59 2 113 6t115 9zM713 279v503h95v-503h-95zM83 747h234v-59q0 -60 -10 -117.5t-33 -120.5l-92 21q21 56 31 103 t10 90v1h-140v82zM357 747h234v-58q0 -54 -5 -110.5t-20 -121.5l-93 16q16 63 21 107.5t5 83.5v1h-142v82z" />
<glyph unicode="&#xaf90;" d="M808 187v-326h-604v326h604zM661 286q-62 -6 -121 -10.5t-128.5 -7t-156 -4t-201.5 -1.5v85h149.5t123.5 2v156h98v-153q59 2 113 6t115 9zM302 -55h408v158h-408v-158zM713 232v550h95v-550h-95zM82 737h234v-84q0 -60 -10 -117.5t-33 -120.5l-92 21q21 56 31 103t10 90 v24h-140v84zM356 737h234v-83q0 -54 -5 -110.5t-20 -121.5l-93 16q16 63 21 107.5t5 83.5v24h-142v84z" />
<glyph unicode="&#xaf91;" d="M808 220v-360h-603v360h98v-99h407v99h98zM661 300q-62 -6 -121 -10.5t-128.5 -7t-156 -4t-201.5 -1.5v85h149.5t123.5 2v169h98v-166q59 2 113 6t115 9zM713 267v515h95v-515h-95zM83 737h234v-70q0 -60 -10 -117.5t-33 -120.5l-92 21q21 56 31 103t10 90v12h-140v82z M357 737h234v-69q0 -54 -5 -110.5t-20 -121.5l-93 16q16 63 21 107.5t5 83.5v12h-142v82zM710 -53v92h-407v-92h407z" />
<glyph unicode="&#xaf95;" d="M231 33q0 36 20 65.5t57.5 51.5t91 34t119.5 12t119 -12t90.5 -34t58 -51.5t20.5 -65.5v-32q0 -36 -20.5 -65.5t-58 -51.5t-90.5 -34t-119 -12t-119.5 12t-91 34t-57.5 51.5t-20 65.5v32zM661 272q-62 -6 -121 -10.5t-128.5 -7t-156 -4t-201.5 -1.5v85h149.5t123.5 2v170 h98v-167q59 2 113 6t115 9zM328 7q0 -15 12.5 -31t37 -29t60 -21.5t81.5 -8.5t81.5 8.5t60 21.5t37 29t12.5 31v20q0 15 -12.5 31t-37 29t-60 21.5t-81.5 8.5t-81.5 -8.5t-60 -21.5t-37 -29t-12.5 -31v-20zM713 220v562h95v-562h-95zM82 737h234v-91q0 -60 -10 -117.5 t-33 -120.5l-92 21q21 56 31 103t10 90v31h-140v84zM356 737h234v-90q0 -54 -5 -110.5t-20 -121.5l-93 16q16 63 21 107.5t5 83.5v31h-142v84z" />
<glyph unicode="&#xaf9c;" d="M878 67v-84h-846v84h310v293h95v-293h83v293h95v-293h263zM770 694v-92q0 -94 -7 -190.5t-27 -194.5l-93 17q20 94 25.5 171.5t5.5 141.5v61h-243v86h339zM363 694v-92q0 -93 -21.5 -189.5t-70.5 -198.5l-88 32q24 50 40 93t26 81t14.5 74t4.5 72v42h-168v86h263z" />
<glyph unicode="&#xafb8;" d="M405 -140v375h-373v84h252q11 38 18.5 77.5t12.5 76.5t7 69t2 55v38h-211v86h307v-69q0 -84 -9 -171t-29 -162h252q20 87 25.5 153t5.5 124v39h-201v86h297v-70q0 -76 -4.5 -160t-24.5 -172h146v-84h-373v-375h-100z" />
<glyph unicode="&#xafb9;" d="M758 743v-58q0 -81 -8.5 -149t-20.5 -125h149v-84h-376v-160h258v-316h-99v232h-520v84h261v160h-370v84h241q33 126 33 234v14h-188v84h283v-53q0 -80 -7 -147.5t-23 -131.5h258q17 60 25 117t8 110v21h-206v84h302z" />
<glyph unicode="&#xafbc;" d="M758 738v-73q0 -82 -8.5 -154.5t-21.5 -131.5h150v-84h-361v-214h-100v214h-385v84h240q17 64 25.5 128t8.5 118v28h-188v85h283v-68q0 -161 -31 -291h259q17 61 25 123t8 116v35h-206v85h302zM253 -44h521v-86h-620v299h99v-213z" />
<glyph unicode="&#xafc0;" d="M758 753v-53q0 -72 -6.5 -133t-16.5 -114h143v-82h-373v-115h251v-240h-506v-81h533v-81h-630v241h506v80h-511v81h257v115h-373v82h248q26 112 26 207v10h-188v83h283v-48q0 -72 -6 -133t-18 -119h260q13 52 19 102.5t6 97.5v17h-206v83h302z" />
<glyph unicode="&#xafc7;" d="M758 753v-53q0 -72 -6.5 -133t-16.5 -114h143v-82h-373v-124h-90v-224h-189v-88h33q24 0 44.5 0.5t41 2t42.5 4t48 5.5l7 -80q-98 -12 -204 -12h-105v244h189v83h-192v78h275v111h-373v82h248q26 112 26 207v10h-188v83h283v-48q0 -72 -6 -133t-18 -119h260 q13 52 19 102.5t6 97.5v17h-206v83h302zM783 -49q0 -24 -11.5 -44.5t-32.5 -35.5t-50 -24t-63 -9t-63 9t-50 24t-32.5 35.5t-11.5 44.5v26q0 24 11.5 44.5t32.5 35.5t50 24t63 9t63 -9t50 -24t32.5 -35.5t11.5 -44.5v-26zM803 123h-354v79h129v82h96v-82h129v-79zM698 -28 q0 20 -20 33t-52 13t-52 -13t-20 -33v-16q0 -20 20 -33t52 -13t52 13t20 33v16z" />
<glyph unicode="&#xafc8;" d="M758 743v-56q0 -79 -8 -145.5t-20 -123.5h148v-84h-373v-138h252v-335h-604v335h252v138h-373v84h242q32 125 32 229v12h-188v84h283v-51q0 -78 -7 -144.5t-22 -129.5h259q17 58 24 114.5t7 107.5v19h-206v84h302zM659 113h-408v-169h408v169z" />
<glyph unicode="&#xafc9;" d="M757 236v-376h-604v376h98v-108h408v108h98zM758 748v-56q0 -77 -7.5 -142.5t-19.5 -120.5h147v-84h-373v-157h-100v157h-373v84h244q15 60 22.5 116t7.5 107v12h-188v84h283v-51q0 -77 -7 -141.5t-21 -126.5h259q16 57 23 111t7 105v19h-206v84h302zM659 -56v103h-408 v-103h408z" />
<glyph unicode="&#xafcb;" d="M758 746v-62q0 -81 -8.5 -149t-20.5 -125h149v-84h-373v-124h-100v124h-373v84h241q33 126 33 234v18h-188v84h283v-57q0 -80 -7 -147.5t-23 -131.5h258q17 60 25 117t8 110v25h-206v84h302zM504 169v-39q0 -16 2.5 -29t12.5 -26t29 -26.5t51 -30.5q36 -19 87 -39.5 t123 -49.5l-39 -80q-63 25 -113.5 46.5t-88.5 39.5q-58 27 -82 44.5t-31 28.5q-8 -12 -32 -29t-81 -45q-37 -18 -87 -39.5t-116 -47.5l-39 81q73 29 123 49.5t87 40.5q32 17 51 31t28.5 26.5t12.5 25.5t3 29v39h99z" />
<glyph unicode="&#xafcd;" d="M878 412v-84h-373v-126q51 -5 95 -18t75.5 -34t49.5 -49.5t18 -63.5v-36q0 -39 -22 -70t-61 -52.5t-91.5 -33t-113.5 -11.5t-113.5 11.5t-91.5 33t-61 52.5t-22 70v36q0 35 18 63.5t49.5 49.5t75.5 34t95 18v126h-373v84h242q17 61 24.5 118t7.5 110v19h-188v84h283v-58 q0 -78 -7 -144t-22 -129h259q17 58 24 114t7 107v26h-206v84h302v-63q0 -79 -8 -145.5t-20 -122.5h148zM455 -85q40 0 74.5 7t60 19.5t40.5 29.5t15 36v24q0 19 -15 36t-40.5 29.5t-60 19.5t-74.5 7t-74.5 -7t-60 -19.5t-40.5 -29.5t-15 -36v-24q0 -19 15 -36t40.5 -29.5 t60 -19.5t74.5 -7z" />
<glyph unicode="&#xafce;" d="M758 743v-55q0 -76 -7.5 -141t-18.5 -120h146v-84h-373v-113h-100v113h-373v84h244q30 118 30 221v11h-188v84h283v-50q0 -76 -6.5 -140.5t-20.5 -125.5h259q15 56 22 110t7 104v18h-206v84h302zM777 197v-81h-273q0 -32 16.5 -55t67.5 -47q36 -17 84.5 -35.5 t120.5 -44.5l-36 -79q-56 20 -109 41t-87 36q-53 23 -75 39.5t-30 32.5q-8 -16 -30.5 -33.5t-75.5 -40.5q-35 -16 -88 -36t-109 -40l-36 80q72 26 120.5 44.5t84.5 35.5q25 12 41 23.5t25.5 23.5t13.5 25.5t4 29.5h-273v81h644z" />
<glyph unicode="&#xafd4;" d="M297 -112v382q-56 -2 -116.5 -2h-128.5v86q39 0 75 -0.5t71 0.5q17 67 25 129.5t8 101.5v53h-136v85h231v-122q0 -25 -2 -54.5t-6 -61.5t-9.5 -65.5t-12.5 -64.5q49 2 93 3t86 3q14 63 19.5 118t5.5 93v66h-134v85h227v-135q0 -22 -1.5 -49t-4 -56t-6.5 -58.5t-9 -56.5 q22 2 43 3.5t42 3.5l9 -83q-63 -7 -129 -11.5t-140 -7.5v-385h-100zM722 -140v232h-215v85h215v605h96v-922h-96z" />
<glyph unicode="&#xafdc;" d="M214 -146v226h502v67h-507v80h604v-224h-506v-69h533v-80h-626zM277 263v153q-50 -2 -106 -2h-122v79h154q17 48 22.5 86t5.5 72v13h-130v82h224v-77q0 -42 -5.5 -86t-18.5 -89q48 1 89.5 2.5t80.5 3.5q11 45 15.5 78t4.5 62v24h-128v82h220v-88q0 -33 -4 -71.5 t-12 -80.5q21 2 43 4t45 4l8 -76q-69 -7 -137 -11.5t-151 -7.5v-156h-98zM718 261v49h-209v76h209v396h95v-521h-95z" />
<glyph unicode="&#xafe8;" d="M663 409q-70 -7 -138.5 -12t-152.5 -8v-161h-98v159q-49 -2 -104 -2h-121v82h149q20 53 26.5 94.5t6.5 74.5v22h-130v83h224v-87q0 -40 -6 -87.5t-21 -98.5q47 1 88.5 2.5t81.5 3.5q14 49 18.5 86t4.5 65v33h-128v83h220v-98q0 -31 -4.5 -73t-14.5 -90q22 2 44.5 4 t46.5 4zM707 184v-60q0 -19 1.5 -32t6 -24.5t14 -22.5t24.5 -25q26 -24 58.5 -47.5t72.5 -49.5l-53 -69q-38 25 -72 50.5t-54 42.5t-30.5 29.5t-15.5 20.5q-8 -16 -41 -46q-26 -23 -57 -47.5t-65 -49.5q-34 25 -65 49.5t-57 47.5q-33 30 -41 46q-5 -8 -15.5 -20.5 t-30.5 -29.5t-54 -42.5t-72 -50.5l-53 69q40 26 72.5 49.5t58.5 47.5q15 14 24.5 25t14 22.5t6 24.5t1.5 32v60h96v-60q0 -20 1.5 -33.5t5.5 -24.5t12 -21t22 -23q15 -14 32.5 -28.5t41.5 -32.5q24 18 41.5 32.5t32.5 28.5q13 13 21.5 23t12.5 21t5.5 24.5t1.5 33.5v60h96z M718 221v50h-209v80h209v431h95v-561h-95z" />
<glyph unicode="&#xafe9;" d="M238 30q0 34 19.5 63t56 50t90 33t122.5 12t122.5 -12t90 -33t56 -50t19.5 -63v-34q0 -34 -19.5 -63t-56 -50t-90 -33t-122.5 -12t-122.5 12t-90 33t-56 50t-19.5 63v34zM663 403q-70 -7 -138.5 -12t-152.5 -8v-181h-98v179q-49 -2 -104 -2h-121v82h149q20 52 26.5 93.5 t6.5 74.5v29h-130v83h224v-92q0 -40 -6 -88t-21 -99q48 1 89.5 2.5t80.5 3.5q14 49 18.5 85.5t4.5 64.5v40h-128v83h220v-103q0 -31 -4.5 -73.5t-14.5 -90.5q22 2 44.5 4t46.5 4zM718 204v55h-209v80h209v443h95v-578h-95zM335 2q0 -13 11.5 -28t35 -27.5t59.5 -21t85 -8.5 t85 8.5t59.5 21t35 27.5t11.5 28v22q0 13 -11.5 27.5t-35 27.5t-59.5 21.5t-85 8.5t-85 -8.5t-59.5 -21.5t-35 -27.5t-11.5 -27.5v-22z" />
<glyph unicode="&#xaff0;" d="M229 -81v369q-45 -1 -93.5 -1h-105.5v85h105q19 65 28.5 126t9.5 99v32h-105v85h196v-101q0 -24 -2.5 -54t-7 -62t-11 -64t-13.5 -61l140 3q16 65 20.5 121t4.5 88v45h-101v85h190v-114q0 -20 -1 -46t-3.5 -55.5t-6.5 -60t-10 -59.5l63 4l4 -82q-57 -5 -106 -7t-97 -4 v-371h-98zM576 763h90v-858h-90v213h-170v83h170v562zM838 -140h-92v922h92v-922z" />
<glyph unicode="&#xaff1;" d="M225 201v186q-45 -1 -94 -1h-103v80h116q19 54 26.5 90.5t7.5 74.5v20h-106v84h195v-80q0 -51 -7 -94t-22 -93q38 1 71.5 2t65.5 3q14 51 18 86.5t4 67.5v24h-100v84h187v-84q0 -38 -3.5 -81t-14.5 -92q15 1 29 2t28 3l7 -80q-51 -5 -102 -8.5t-107 -5.5v-188h-96z M829 153v-302h-99v217h-525v85h624zM414 340h161v430h90v-569h-90v59h-161v80zM737 782h92v-582h-92v582z" />
<glyph unicode="&#xaff4;" d="M530 377q-51 -5 -102 -8.5t-107 -5.5v-176h-96v174q-45 -1 -94 -1h-103v81h116q9 27 15.5 49.5t10.5 43t6 40.5t2 43v29h-106v84h195v-99q0 -28 -1.5 -51.5t-5 -46t-9 -44.5t-12.5 -46q37 1 70.5 2t64.5 3q14 51 18.5 88.5t4.5 76.5v33h-100v84h187v-103q0 -45 -4 -85.5 t-14 -88.5q15 1 29 2t28 3zM414 299h161v471h90v-658h-90v106h-161v81zM309 -44h537v-86h-636v258h99v-172zM737 782h92v-690h-92v690z" />
<glyph unicode="&#xaff8;" d="M241 -147v221h492v63h-497v80h593v-220h-492v-64h515v-80h-611zM530 426q-51 -5 -102 -8.5t-107 -5.5v-156h-96v154q-45 -1 -94 -1h-103v79h117q19 52 26 90t7 74v6h-106v82h195v-82q0 -50 -6.5 -87.5t-19.5 -80.5q37 1 70.5 2t64.5 3q14 49 17.5 85.5t3.5 66.5v11h-100 v82h187v-71q0 -40 -3 -81.5t-13 -87.5l55 5zM414 376h161v394h90v-515h-90v43h-161v78zM737 782h92v-528h-92v528z" />
<glyph unicode="&#xb000;" d="M829 172v-311h-604v311h604zM530 409q-51 -5 -102 -8.5t-107 -5.5v-174h-96v172q-45 -1 -94 -1h-103v80h116q20 53 27 90.5t7 74.5v14h-106v84h195v-80q0 -49 -6.5 -91t-22.5 -90q38 1 71.5 2t65.5 3q14 51 18 87t4 67v18h-100v84h187v-78q0 -38 -3.5 -81t-14.5 -92 q15 1 29 2t28 3zM414 348h161v422h90v-549h-90v47h-161v80zM323 -55h408v143h-408v-143zM737 782h92v-562h-92v562z" />
<glyph unicode="&#xb001;" d="M829 -143h-604v336h97v-86h411v87h96v-337zM530 416q-51 -5 -102 -8.5t-107 -5.5v-161h-96v159q-45 -1 -94 -1h-103v79h116q20 53 27 91.5t7 75.5v10h-106v83h195v-87q0 -25 -1.5 -46.5t-5 -41.5t-8.5 -40.5t-12 -42.5q37 1 70.5 2t64.5 3q14 51 18 87.5t4 67.5v15h-100 v83h187v-76q0 -38 -3.5 -81t-13.5 -91l56 5zM414 357h161v413h90v-531h-90v38h-161v80zM737 782h92v-544h-92v544zM322 -59h411v84h-411v-84z" />
<glyph unicode="&#xb004;" d="M530 409q-51 -5 -102 -8.5t-107 -5.5v-171h-96v169q-45 -1 -94 -1h-103v80h116q20 53 27 90.5t7 74.5v14h-106v84h195v-80q0 -49 -6.5 -91t-22.5 -90q38 1 71.5 2t65.5 3q14 51 18 87t4 67v18h-100v84h187v-78q0 -38 -3.5 -81t-14.5 -92q15 1 29 2t28 3zM705 180v-56 q0 -19 1.5 -32t6 -24.5t14 -22.5t24.5 -25q26 -24 58.5 -47.5t72.5 -49.5l-53 -69q-38 25 -72 50.5t-54 42.5t-30.5 29.5t-15.5 20.5q-8 -16 -41 -46q-26 -23 -57 -47.5t-65 -49.5q-34 25 -65 49.5t-57 47.5q-33 30 -41 46q-5 -8 -15.5 -20.5t-30.5 -29.5t-54 -42.5 t-72 -50.5l-53 69q40 26 72.5 49.5t58.5 47.5q15 14 24.5 25t14 22.5t6 24.5t1.5 32v56h96v-56q0 -20 1.5 -33.5t5.5 -24.5t12 -21t22 -23q15 -14 32.5 -28.5t41.5 -32.5q24 18 41.5 32.5t32.5 28.5q13 13 21.5 23t12.5 21t5.5 24.5t1.5 33.5v56h96zM414 348h161v422h90 v-553h-90v51h-161v80zM737 782h92v-565h-92v565z" />
<glyph unicode="&#xb00c;" d="M666 286q-61 -6 -124.5 -10.5t-134.5 -7.5v-380h-100v376q-58 -2 -121 -2h-134v86q39 0 75.5 -0.5t71.5 0.5q8 33 14 66t10 63.5t6 56.5t2 45v59h-138v85h233v-127q0 -123 -29 -247q50 2 94.5 3t86.5 3q14 62 19 118t5 93v72h-136v85h229v-140q0 -55 -5 -112t-14 -109 q20 2 40.5 3.5t40.5 3.5zM722 -140v922h96v-922h-96z" />
<glyph unicode="&#xb010;" d="M663 359q-65 -7 -128 -11.5t-139 -7.5v-160h-98v157q-54 -1 -114.5 -1.5t-134.5 -0.5v85h151q17 48 24 93.5t7 99.5v39h-132v84h226v-107q0 -47 -6 -101t-20 -107q48 1 89.5 2.5t81.5 3.5q12 45 17.5 86.5t5.5 88.5v50h-130v84h222v-118q0 -38 -5 -86.5t-15 -98.5 q22 2 44.5 4t45.5 4zM308 -46h524v-85h-623v263h99v-178zM718 71v711h95v-711h-95z" />
<glyph unicode="&#xb014;" d="M214 -146v234h502v72h-507v81h604v-231h-506v-75h533v-81h-626zM663 419q-66 -7 -129 -11.5t-140 -7.5v-122h-98v119q-53 -1 -113.5 -1.5t-133.5 -0.5v81h150q9 25 15.5 47t10 43t5 42.5t1.5 46.5v8h-132v83h226v-69q0 -42 -6 -95.5t-21 -104.5q48 1 90.5 2.5t82.5 3.5 q6 23 10.5 43t7 39.5t3.5 39.5t1 43v15h-130v83h222v-80q0 -33 -4.5 -81t-14.5 -96l44 4t45 4zM718 275v507h95v-507h-95z" />
<glyph unicode="&#xb01c;" d="M813 174v-313h-604v313h604zM663 396q-66 -7 -129 -11.5t-140 -7.5v-155h-98v152q-53 -1 -113.5 -1.5t-133.5 -0.5v85h150q20 52 26 95t6 87v18h-132v84h226v-82q0 -38 -6 -92.5t-21 -108.5q92 1 172 6q14 49 18.5 88t4.5 76v29h-130v84h222v-93q0 -29 -4.5 -78 t-14.5 -100l44 4t45 4zM307 -55h408v145h-408v-145zM718 219v563h95v-563h-95z" />
<glyph unicode="&#xb01d;" d="M813 209v-349h-603v349h98v-98h407v98h98zM663 401q-66 -7 -129 -11.5t-140 -7.5v-140h-98v137q-53 -1 -113.5 -1.5t-133.5 -0.5v83h151q18 50 24.5 90t6.5 86v27h-132v83h226v-86q0 -37 -6 -91t-20 -108q48 1 90 2.5t83 3.5q12 46 16.5 83t4.5 79v34h-130v83h222v-97 q0 -29 -4.5 -77t-14.5 -99l44 4t45 4zM718 246v536h95v-536h-95zM715 -53v82h-407v-82h407z" />
<glyph unicode="&#xb028;" d="M566 -138v380h-222v-380h-99v380h-213v84h253q10 37 17.5 76.5t12.5 75.5t7 67.5t2 53.5v36h-211v86h307v-67q0 -82 -8.5 -167.5t-27.5 -160.5h252q19 85 24 150t5 122v37h-201v86h297v-68q0 -75 -4 -158t-24 -169h145v-84h-213v-380h-99z" />
<glyph unicode="&#xb044;" d="M390 693v-114q0 -104 -18.5 -199t-58.5 -196l-89 29q38 98 54.5 177t16.5 151v66h-188v86h283zM760 693v-114q0 -92 -9 -193.5t-31 -198.5l-93 17q21 95 29 175.5t8 144.5v83h-217v86h313zM878 67v-84h-846v84h846z" />
<glyph unicode="&#xb045;" d="M758 738v-75q0 -81 -8 -148t-21 -124h149v-84h-846v84h241q17 64 25 129.5t8 119.5v14h-188v84h283v-70q0 -79 -7 -146.5t-23 -130.5h259q17 59 24.5 116t7.5 109v38h-206v84h302zM141 184h619v-333h-99v249h-520v84z" />
<glyph unicode="&#xb048;" d="M758 731v-87q0 -81 -8.5 -157t-20.5 -136h149v-84h-846v84h241q8 33 14.5 69t10.5 72t6 69t2 60v25h-188v85h283v-82q0 -80 -7 -155.5t-23 -142.5h259q17 61 24.5 127t7.5 119v49h-206v85h302zM253 -44h521v-86h-620v297h99v-211z" />
<glyph unicode="&#xb04a;" d="M401 743v-67q0 -71 -5 -133t-18 -120h260q14 53 19 103.5t5 97.5v35h-206v84h302v-72q0 -72 -6 -133.5t-17 -114.5h143v-84h-846v84h249q14 59 19.5 118t5.5 107v11h-188v84h283zM784 -45q0 -25 -13 -46t-36 -36.5t-55 -24t-71 -8.5t-71 8.5t-55 24t-36 36.5t-13 46v25 q0 25 13 46t36 36.5t55 24t71 8.5t71 -8.5t55 -24t36 -36.5t13 -46v-25zM233 -47h15q38 0 72.5 2t76.5 7l10 -83q-48 -6 -88.5 -8.5t-82.5 -2.5h-100v355h97v-270zM819 123h-420v79h161v80h98v-80h161v-79zM696 -25q0 20 -23 34t-64 14t-64 -14t-23 -34v-15q0 -20 23 -34 t64 -14t64 14t23 34v15z" />
<glyph unicode="&#xb04c;" d="M153 -146v247h506v87h-511v81h608v-247h-506v-87h533v-81h-630zM758 747v-46q0 -72 -7 -137.5t-17 -115.5h144v-84h-846v84h245q14 57 21.5 116t7.5 100h-188v83h283v-41q0 -72 -6 -137.5t-19 -120.5h258q14 51 21 103.5t7 102.5v10h-206v83h302z" />
<glyph unicode="&#xb04e;" d="M758 747v-46q0 -72 -7 -137.5t-17 -115.5h144v-84h-846v84h245q14 57 21.5 116t7.5 100h-188v83h283v-41q0 -72 -6 -137.5t-19 -120.5h258q14 51 21 103.5t7 102.5v10h-206v83h302zM485 -145v417h288v-417h-288zM138 -145v250h193v88h-196v79h290v-244h-193v-92h31 q24 0 44.5 0.5t41 2t42.5 4t48 5.5l7 -81q-98 -12 -204 -12h-104zM680 194h-103v-261h103v261z" />
<glyph unicode="&#xb053;" d="M758 747v-46q0 -72 -7 -137.5t-17 -115.5h144v-84h-846v84h245q14 57 21.5 116t7.5 100h-188v83h283v-41q0 -72 -6 -137.5t-19 -120.5h258q14 51 21 103.5t7 102.5v10h-206v83h302zM133 -145v251h189v90h-192v78h285v-244h-189v-95h33q24 0 44.5 0.5t41 2t42.5 4t48 5.5 l7 -80q-98 -12 -204 -12h-105zM783 -46q0 -25 -11.5 -46.5t-32.5 -37t-50 -24t-63 -8.5t-63 8.5t-50 24t-32.5 37t-11.5 46.5v28q0 25 11.5 46.5t32.5 37t50 24t63 8.5t63 -8.5t50 -24t32.5 -37t11.5 -46.5v-28zM803 133h-354v79h129v86h96v-86h129v-79zM698 -23 q0 23 -20 36t-52 13t-52 -13t-20 -36v-18q0 -23 20 -36t52 -13t52 13t20 36v18z" />
<glyph unicode="&#xb054;" d="M757 -139h-604v340h604v-340zM758 738v-75q0 -80 -8 -147t-21 -124h149v-84h-846v84h241q17 63 25 129t8 119v14h-188v84h283v-70q0 -79 -7 -146t-23 -130h259q17 59 24.5 115.5t7.5 108.5v38h-206v84h302zM659 118h-408v-174h408v174z" />
<glyph unicode="&#xb055;" d="M757 247v-387h-604v387h98v-108h408v108h98zM758 743v-72q0 -75 -6.5 -139t-18.5 -119h145v-84h-846v84h247q14 61 20.5 122.5t6.5 112.5v11h-188v84h283v-67q0 -74 -6 -138.5t-20 -124.5h261q14 55 20 108.5t6 102.5v35h-206v84h302zM659 -56v114h-408v-114h408z" />
<glyph unicode="&#xb057;" d="M758 738v-97q0 -76 -7.5 -141t-18.5 -120h146v-84h-846v84h244q15 62 22.5 124.5t7.5 113.5v36h-188v84h283v-92q0 -76 -6.5 -140.5t-20.5 -125.5h259q15 56 22 110t7 104v60h-206v84h302zM454 14q-4 -7 -11.5 -14t-20 -15t-32 -19t-47.5 -25q-37 -19 -87 -42.5 t-116 -51.5l-41 80q73 32 123 54.5t87 42.5q31 16 50 29.5t29.5 26t13.5 25t3 28.5v87h99v-87q0 -16 3 -29t13.5 -25.5t29 -25.5t50.5 -29q36 -19 87 -42t123 -54l-41 -79q-63 26 -114 49.5t-89 43.5q-28 14 -47.5 25t-32.5 19t-20 15t-10 13h-2z" />
<glyph unicode="&#xb059;" d="M455 215q63 0 115.5 -11.5t91 -33.5t60 -54t21.5 -73v-36q0 -41 -21.5 -73t-60 -54t-91 -33.5t-115.5 -11.5t-115.5 11.5t-91 33.5t-60 54t-21.5 73v36q0 41 21.5 73t60 54t91 33.5t115.5 11.5zM758 737v-75q0 -81 -8 -148t-21 -124h149v-84h-846v84h241q17 64 25 129.5 t8 119.5v14h-188v84h283v-70q0 -79 -7 -146.5t-23 -130.5h259q17 59 24.5 116t7.5 109v38h-206v84h302zM455 -84q40 0 75 7.5t60.5 20.5t40 30.5t14.5 38.5v24q0 21 -14.5 38.5t-40 30.5t-60.5 20.5t-75 7.5q-41 0 -75.5 -7.5t-60 -20.5t-40 -30.5t-14.5 -38.5v-24 q0 -21 14.5 -38.5t40 -30.5t60 -20.5t75.5 -7.5z" />
<glyph unicode="&#xb05d;" d="M759 262v-82h-506v-82h497v-79h-497v-83h522v-82h-621v408h605zM758 747v-46q0 -74 -7 -140t-18 -117h145v-84h-846v84h244q7 28 12.5 58.5t9.5 59.5t6 55t2 47h-188v83h283v-41q0 -73 -6.5 -139.5t-19.5 -122.5h257q15 52 22.5 105.5t7.5 104.5v10h-206v83h302z" />
<glyph unicode="&#xb07c;" d="M705 -140v922h96v-922h-96zM48 176q43 45 73.5 79.5t51 63t32 53.5t18 52t8 57.5t1.5 69.5v61h-148v85h243v-148q0 -48 -2 -84.5t-8.5 -68t-20.5 -60t-37.5 -61t-58.5 -71.5t-85 -90zM297 91q44 52 74.5 91.5t51.5 71.5t33 58.5t18.5 54t8 58.5t1.5 70v117h-115v85h208 v-204q0 -48 -2 -85t-8.5 -68.5t-20 -62t-37 -66t-58.5 -78.5t-85 -101z" />
<glyph unicode="&#xb07d;" d="M706 239v543h95v-543h-95zM194 191h607v-340h-99v255h-508v85zM226 644h-141v84h235v-112q0 -49 -7.5 -84t-30.5 -69t-65 -71.5t-110 -90.5l-56 69q62 47 97 78.5t52.5 58t21.5 53.5t4 65v19zM482 644h-119v84h211v-120q0 -52 -4 -91t-24 -77t-62.5 -82t-118.5 -105 l-60 67q63 52 98.5 87.5t53 66.5t21.5 64t4 80v26z" />
<glyph unicode="&#xb080;" d="M706 124v658h95v-658h-95zM322 -44h498v-86h-597v298h99v-212zM226 639h-141v84h235v-135q0 -49 -7.5 -84t-30.5 -69t-65 -71.5t-110 -90.5l-56 69q62 47 97 78.5t52.5 58t21.5 53.5t4 65v42zM482 639h-119v84h211v-142q0 -52 -4 -91t-24 -77t-62.5 -82t-118.5 -105 l-60 67q63 52 98.5 87.5t53 66.5t21.5 64t4 80v48z" />
<glyph unicode="&#xb084;" d="M228 -146v249h476v86h-481v82h578v-248h-476v-87h502v-82h-599zM363 660v82h211v-86q0 -52 -3.5 -90.5t-23.5 -75t-62.5 -78.5t-121.5 -101l-58 69q62 48 97.5 80.5t53 61.5t22 60.5t4.5 77.5h-119zM85 660v82h235v-84q0 -49 -7 -83t-29.5 -65t-65 -66t-112.5 -87l-54 71 q62 44 96.5 72.5t52 52.5t21.5 48t4 59h-141zM706 317v465h95v-465h-95z" />
<glyph unicode="&#xb08c;" d="M706 258v524h95v-524h-95zM801 213v-352h-577v352h577zM322 -55h381v184h-381v-184zM221 644h-141v84h235v-105q0 -49 -7.5 -84t-30.5 -69t-65 -71.5t-110 -90.5l-56 69q62 47 97 78.5t52.5 58t21.5 53.5t4 65v12zM477 644h-119v84h211v-113q0 -52 -4 -91t-24 -77 t-62.5 -82t-118.5 -105l-60 67q63 52 98.5 87.5t53 66.5t21.5 64t4 80v19z" />
<glyph unicode="&#xb08d;" d="M801 257v-397h-577v397h98v-114h381v114h98zM482 645h-119v83h211v-101q0 -52 -3.5 -90.5t-23.5 -75t-62.5 -78.5t-121.5 -101l-58 69q63 48 99 81t53 62.5t21 62t4 80.5v8zM226 645h-141v83h235v-99q0 -49 -7 -83t-29.5 -65t-65 -66t-112.5 -87l-54 71q63 45 98.5 74 t52 53.5t20 49.5t3.5 62v7zM706 302v480h95v-480h-95zM703 -56v116h-381v-116h381z" />
<glyph unicode="&#xb08f;" d="M457 227h50h48v-80q0 -21 3 -36.5t12.5 -29t26 -25.5t43.5 -27q33 -18 83 -41t125 -54l-40 -79q-66 28 -114.5 52.5t-82.5 41.5q-48 25 -71.5 42t-32.5 31q-9 -16 -31.5 -33.5t-74.5 -43.5q-33 -17 -81 -40t-114 -51l-42 80q74 30 125 53t84 42q26 15 42.5 28t25.5 26.5 t12.5 28.5t3.5 35v80zM482 644h-119v84h211v-119q0 -52 -4 -91t-24 -77t-62.5 -82t-118.5 -105l-60 67q63 52 98.5 87.5t53 66.5t21.5 64t4 80v25zM706 190v592h95v-592h-95zM226 644h-141v84h235v-111q0 -49 -7.5 -84t-30.5 -69t-65 -71.5t-110 -90.5l-56 69q62 47 97 78.5 t52.5 58t21.5 53.5t4 65v18z" />
<glyph unicode="&#xb091;" d="M706 232v550h95v-550h-95zM237 47q0 36 19.5 67.5t56 55t89 37t119.5 13.5t119.5 -13.5t89 -37t56 -55t19.5 -67.5v-40q0 -36 -19.5 -67.5t-56 -55t-89 -37t-119.5 -13.5t-119.5 13.5t-89 37t-56 55t-19.5 67.5v40zM708 41q0 18 -13 35.5t-37.5 31.5t-59 22.5t-77.5 8.5 t-77.5 -8.5t-59 -22.5t-37.5 -31.5t-13 -35.5v-28q0 -18 13 -35.5t37.5 -31.5t59 -22.5t77.5 -8.5t77.5 8.5t59 22.5t37.5 31.5t13 35.5v28zM226 641h-141v84h235v-115q0 -49 -7.5 -84t-30.5 -69t-65 -71.5t-110 -90.5l-56 69q62 47 97 78.5t52.5 58t21.5 53.5t4 65v22z M482 641h-119v84h211v-123q0 -52 -4 -91t-24 -77t-62.5 -82t-118.5 -105l-60 67q63 52 98.5 87.5t53 66.5t21.5 64t4 80v29z" />
<glyph unicode="&#xb098;" d="M896 368h-142v-508h-99v922h99v-328h142v-86zM187 198h50q98 0 180.5 6t164.5 20l11 -85q-45 -8 -87.5 -13.5t-87.5 -8.5t-94 -4.5t-105 -1.5h-131v594h99v-507z" />
<glyph unicode="&#xb099;" d="M177 209h583v-358h-99v273h-484v85zM180 732v-324q62 0 112 1t96.5 3t93.5 6.5t103 11.5l10 -83q-54 -7 -103 -12t-106.5 -8t-130.5 -4t-173 -1v410h98zM891 485h-131v-228h-98v525h98v-211h131v-86z" />
<glyph unicode="&#xb09a;" d="M180 732v-316q62 0 112 1t96.5 3t93.5 6.5t103 11.5l10 -83q-54 -7 -103 -12t-106.5 -8t-130.5 -4t-173 -1v402h98zM891 488h-131v-227h-98v521h98v-208h131v-86zM138 213h301v-362h-98v277h-203v85zM477 213h283v-362h-98v277h-185v85z" />
<glyph unicode="&#xb09c;" d="M180 727v-352q62 0 112 1t96.5 3t93.5 6.5t103 11.5l10 -83q-54 -7 -103 -12t-106.5 -8t-130.5 -4t-173 -1v438h98zM891 450h-131v-325h-98v657h98v-246h131v-86zM296 -44h489v-86h-588v316h99v-230z" />
<glyph unicode="&#xb09f;" d="M760 225v-85h-463v-194h480v-85h-579v364h562zM180 732v-307q62 0 112 1t96.5 3t93.5 6.5t103 11.5l10 -83q-54 -7 -103 -12t-106.5 -8t-130.5 -4t-173 -1v393h98zM891 495h-131v-225h-98v512h98v-201h131v-86z" />
<glyph unicode="&#xb0a0;" d="M194 -146v257h469v94h-474v82h571v-256h-469v-95h495v-82h-592zM180 747v-288q62 0 112 1t96.5 3t93.5 6.5t103 11.5l10 -82q-54 -7 -103 -12t-106.5 -8t-130.5 -4t-173 -1v373h98zM891 520h-131v-187h-98v449h98v-176h131v-86z" />
<glyph unicode="&#xb0a1;" d="M143 -144v256h205v93h-208v80h303v-251h-205v-96h38q59 0 115 2.5t115 9.5l7 -82q-65 -8 -127 -10t-131 -2h-112zM180 747v-288q62 0 112 1t96.5 3t93.5 6.5t103 11.5l10 -82q-54 -7 -103 -12t-106.5 -8t-130.5 -4t-173 -1v373h98zM665 -153v357h-176v81h271v-438h-95z M662 331v451h98v-176h131v-86h-131v-189h-98z" />
<glyph unicode="&#xb0a2;" d="M478 -144v429h282v-429h-282zM139 -144v256h187v93h-190v80h284v-251h-187v-96h25q24 0 44.5 0.5t41 2t42.5 4t48 5.5l7 -82q-98 -12 -204 -12h-98zM180 747v-288q62 0 112 1t96.5 3t93.5 6.5t103 11.5l10 -82q-54 -7 -103 -12t-106.5 -8t-130.5 -4t-173 -1v373h98z M662 331v451h98v-176h131v-86h-131v-189h-98zM667 205h-97v-269h97v269z" />
<glyph unicode="&#xb0a8;" d="M760 229v-368h-562v368h562zM180 732v-308q62 0 112 1t96.5 3t93.5 6.5t103 11.5l10 -83q-54 -7 -103 -12t-106.5 -8t-130.5 -4t-173 -1v394h98zM296 -55h366v200h-366v-200zM891 495h-131v-221h-98v508h98v-201h131v-86z" />
<glyph unicode="&#xb0a9;" d="M760 265v-405h-562v405h98v-117h366v117h98zM180 732v-293q62 0 112 1t96.5 3t93.5 6.5t103 11.5l10 -83q-54 -7 -103 -12t-106.5 -8t-130.5 -4t-173 -1v379h98zM891 505h-131v-195h-98v472h98v-191h131v-86zM662 -56v121h-366v-121h366z" />
<glyph unicode="&#xb0ab;" d="M425 239h98v-92q0 -21 3 -36.5t12.5 -29t26 -25.5t43.5 -27q33 -18 83 -41t125 -54l-40 -79q-66 28 -114.5 52.5t-82.5 41.5q-48 25 -71.5 42t-32.5 31q-9 -16 -31.5 -33.5t-74.5 -43.5q-33 -17 -81 -40t-114 -51l-42 80q74 30 125 53t84 42q26 15 42.5 28t25.5 26.5 t12.5 28.5t3.5 35v92zM180 727v-320q62 0 112 1t96.5 3t93.5 6.5t103 11.5l10 -83q-54 -7 -103 -12t-106.5 -8t-130.5 -4t-173 -1v406h98zM891 480h-131v-290h-98v592h98v-216h131v-86z" />
<glyph unicode="&#xb0ac;" d="M708 238v-95q0 -20 1.5 -34t6 -26t14 -24t24.5 -26q26 -24 59 -52t72 -57l-54 -68q-36 27 -70.5 56.5t-54.5 46.5q-20 18 -30.5 31t-15.5 21q-5 -9 -13.5 -21t-25.5 -29q-25 -24 -57.5 -52t-66.5 -54q-34 26 -66.5 54t-57.5 52q-17 17 -25.5 29t-13.5 21q-5 -8 -15.5 -21 t-30.5 -31q-20 -17 -54.5 -46.5t-70.5 -56.5l-54 68q39 29 72 57t59 52q15 14 24.5 26t14 24t6 26t1.5 34v95h96v-95q0 -21 1.5 -35.5t5.5 -26.5t12 -23.5t22 -26.5q14 -16 32 -32t42 -37q24 21 42 37t32 32q13 15 21.5 26.5t12.5 23.5t5.5 26.5t1.5 35.5v95h96zM180 732 v-309q62 0 112 1t96.5 3t93.5 6.5t103 11.5l10 -83q-54 -7 -103 -12t-106.5 -8t-130.5 -4t-173 -1v395h98zM662 289v493h98v-198h131v-86h-131v-209h-98z" />
<glyph unicode="&#xb0ad;" d="M208 53q0 37 19 69.5t55 57t87.5 38.5t116.5 14t116.5 -14t87.5 -38.5t55 -57t19 -69.5v-40q0 -37 -19 -69.5t-55 -57t-87.5 -38.5t-116.5 -14t-116.5 14t-87.5 38.5t-55 57t-19 69.5v40zM180 728v-323q62 0 112 1t96.5 3t93.5 6.5t103 11.5l10 -83q-54 -7 -103 -12 t-106.5 -8t-130.5 -4t-173 -1v409h98zM305 19q0 -20 12.5 -38.5t36 -33t57 -23.5t75.5 -9t75.5 9t57 23.5t36 33t12.5 38.5v28q0 19 -12.5 38t-36 33.5t-57 23.5t-75.5 9t-75.5 -9t-57 -23.5t-36 -33.5t-12.5 -38v-28zM891 484h-131v-240h-98v538h98v-212h131v-86z" />
<glyph unicode="&#xb0ae;" d="M774 232v-83h-243v-9q0 -19 3.5 -34t13 -28.5t26 -26t42.5 -25.5q19 -9 38.5 -19t43.5 -21t52.5 -24t65.5 -28l-37 -79q-66 29 -112 51t-80 39q-48 25 -71.5 44.5t-32.5 33.5q-9 -16 -31.5 -35t-74.5 -45q-33 -17 -78.5 -39t-111.5 -50l-38 80q73 30 120 53t80 40 q25 13 41.5 26t26 26.5t13 28.5t3.5 32v9h-247v83h588zM180 732v-302q62 0 112 1t96.5 3t93.5 6.5t103 11.5l10 -83q-54 -7 -103 -12t-106.5 -8t-130.5 -4t-173 -1v388h98zM891 488h-131v-209h-98v503h98v-208h131v-86z" />
<glyph unicode="&#xb0af;" d="M776 195v-82h-246q1 -16 5 -29t13.5 -25t25.5 -22.5t40 -21.5q23 -10 44 -19.5t44.5 -19t50 -19.5t61.5 -22l-36 -80q-57 21 -103.5 40.5t-88.5 37.5q-82 36 -105 73q-24 -38 -106 -74q-42 -18 -88.5 -37.5t-103.5 -40.5l-37 80q34 12 61.5 22.5t51.5 20.5t45.5 19 t42.5 19q47 22 64.5 44t19.5 54h-247v82h247v97h99v-97h246zM180 737v-305q62 0 112 1t96.5 3t93.5 6.5t103 11.5l10 -82q-54 -7 -103 -12t-106.5 -8t-130.5 -4t-173 -1v390h98zM891 508h-131v-231h-98v505h98v-188h131v-86z" />
<glyph unicode="&#xb0b1;" d="M761 270v-83h-467v-84h458v-81h-458v-85h483v-83h-582v416h566zM180 747v-296q62 0 112 1t96.5 3t93.5 6.5t103 11.5l10 -82q-54 -7 -103 -12t-106.5 -8t-130.5 -4t-173 -1v381h98zM891 510h-131v-194h-98v466h98v-186h131v-86z" />
<glyph unicode="&#xb0b3;" d="M239 -8q0 28 18 51.5t50 40t76 25.5t97 9q52 0 96.5 -9t76.5 -25.5t50 -40t18 -51.5v-32q0 -29 -18 -52t-50 -39.5t-76.5 -25.5t-96.5 -9q-53 0 -97 9t-76 25.5t-50 39.5t-18 52v32zM180 747v-284q62 0 112 1t96.5 3t93.5 6.5t103 11.5l11 -82q-54 -7 -103 -12t-107 -8 t-131 -4t-173 -1v369h98zM891 509h-131v-200h-98v473h98v-187h131v-86zM178 235h252v85h98v-85h254v-81h-604v81zM334 -32q0 -26 39.5 -42.5t106.5 -16.5t106.5 16.5t39.5 42.5v16q0 26 -39.5 42.5t-106.5 16.5t-106.5 -16.5t-39.5 -42.5v-16z" />
<glyph unicode="&#xb0b4;" d="M830 -140h-97v536h-117v-491h-97v858h97v-281h117v300h97v-922zM174 695v-495h40q57 0 115 3.5t121 14.5l11 -86q-61 -11 -132.5 -15t-157.5 -4h-96v582h99z" />
<glyph unicode="&#xb0b5;" d="M716 782h95v-534h-95v240h-103v-238h-95v520h95v-197h103v209zM206 200h605v-349h-99v264h-506v85zM165 726v-328q44 0 81.5 1t71 3.5t65 6.5t62.5 9l11 -85q-30 -6 -65 -10t-80.5 -6.5t-104.5 -4t-138 -1.5v415h97z" />
<glyph unicode="&#xb0b8;" d="M716 782h95v-655h-95v335h-103v-313h-95v621h95v-224h103v236zM318 -44h510v-86h-609v309h99v-223zM165 721v-349q44 0 81.5 1t71 3.5t65 6.5t62.5 9l11 -85q-30 -6 -65 -10t-80.5 -6.5t-104.5 -4t-138 -1.5v436h97z" />
<glyph unicode="&#xb0bc;" d="M223 -146v254h492v90h-497v82h593v-252h-492v-92h515v-82h-611zM716 782h95v-455h-95v201h-103v-199h-95v441h95v-158h103v170zM165 739v-289q44 0 81.5 1t71 3.5t65 6.5t62.5 9l11 -84q-30 -6 -65 -10t-80.5 -6.5t-104.5 -4t-138 -1.5v375h97z" />
<glyph unicode="&#xb0c4;" d="M811 217v-356h-578v356h578zM716 782h95v-517h-95v229h-103v-227h-95v503h95v-191h103v203zM331 -55h382v188h-382v-188zM165 726v-311q44 0 81.5 1t71 3.5t65 6.5t62.5 9l11 -85q-30 -6 -65 -10t-80.5 -6.5t-104.5 -4t-138 -1.5v398h97z" />
<glyph unicode="&#xb0c5;" d="M811 266v-406h-578v406h98v-118h382v118h98zM716 782h95v-470h-95v199h-103v-197h-95v456h95v-174h103v186zM165 726v-297q44 0 81.5 1t71 3.5t65 6.5t62.5 9l11 -85q-30 -6 -65 -10t-80.5 -6.5t-104.5 -4t-138 -1.5v384h97zM713 -56v121h-382v-121h382z" />
<glyph unicode="&#xb0c7;" d="M716 782h95v-589h-95v294h-103v-204h-95v487h95v-199h103v211zM445 237h50h48v-93q0 -21 3 -36.5t12.5 -29t26 -25.5t43.5 -27q33 -18 83 -41t125 -54l-40 -79q-66 28 -114.5 52.5t-82.5 41.5q-48 25 -71.5 42t-32.5 31q-9 -16 -31.5 -33.5t-74.5 -43.5q-33 -17 -81 -40 t-114 -51l-42 80q74 30 125 53t84 42q26 15 42.5 28t25.5 26.5t12.5 28.5t3.5 35v93zM165 721v-323q44 0 81.5 1t71 3.5t65 6.5t62.5 9l11 -85q-30 -6 -65 -10t-80.5 -6.5t-104.5 -4t-138 -1.5v410h97z" />
<glyph unicode="&#xb0c8;" d="M703 242v-97q0 -20 1.5 -34t6 -26t14 -24t24.5 -26q26 -24 59 -53t72 -58l-54 -68q-36 27 -70.5 57t-54.5 48q-20 19 -30.5 31.5t-15.5 20.5q-5 -9 -13.5 -21t-25.5 -29q-25 -25 -57.5 -53.5t-66.5 -54.5q-34 26 -66.5 54.5t-57.5 53.5q-17 17 -25.5 29t-13.5 21 q-5 -8 -15.5 -20.5t-30.5 -31.5q-20 -18 -54.5 -48t-70.5 -57l-54 68q39 29 72 57.5t59 53.5q15 15 24 26.5t14 23.5t6.5 26t1.5 34v97h96v-97q0 -21 1.5 -35.5t5.5 -26.5t12 -23.5t22 -26.5q27 -30 74 -71q47 41 74 71q13 15 21.5 26.5t12.5 23.5t5.5 26.5t1.5 35.5v97h96z M716 782h95v-500h-95v222h-103v-208h-95v474h95v-181h103v193zM165 726v-310q44 0 81.5 1t71 3.5t65 6.5t62.5 9l11 -85q-30 -6 -65 -10t-80.5 -6.5t-104.5 -4t-138 -1.5v397h97z" />
<glyph unicode="&#xb0c9;" d="M241 47q0 37 20 68.5t57.5 55t91 36.5t119.5 13t119 -13.5t90.5 -36.5t58 -54.5t20.5 -68.5v-40q0 -36 -20.5 -68t-58 -55t-90.5 -36.5t-119 -13.5t-119.5 13t-91 36.5t-57.5 55t-20 68.5v40zM716 782h95v-550h-95v261h-103v-222h-95v499h95v-192h103v204zM720 41 q0 19 -14 37t-39 31.5t-60.5 21.5t-77.5 8t-77.5 -8t-60.5 -21.5t-39 -31.5t-14 -37v-27q0 -20 14 -37.5t39 -31.5t60.5 -22t77.5 -8t77.5 8t60.5 21.5t39 31.5t14 37v28zM165 722v-329q44 0 81.5 1t71 3.5t65 6.5t62.5 9l11 -85q-30 -6 -65 -10t-80.5 -6.5t-104.5 -4 t-138 -1.5v416h97z" />
<glyph unicode="&#xb0d0;" d="M896 495h-142v-171h142v-86h-142v-378h-99v922h99v-201h142v-86zM187 198h50q98 0 180.5 6t164.5 20l11 -85q-45 -8 -87.5 -13.5t-87.5 -8.5t-94 -4.5t-105 -1.5h-131v594h99v-507z" />
<glyph unicode="&#xb0d1;" d="M167 209h583v-358h-99v273h-484v85zM170 732v-324q62 0 112 1t96.5 3t93.5 6.5t103 11.5l11 -83q-54 -7 -103 -12t-107 -8t-131 -4t-173 -1v410h98zM880 570h-130v-100h130v-85h-130v-128h-98v525h98v-127h130v-85z" />
<glyph unicode="&#xb0d4;" d="M880 534h-130v-118h130v-85h-130v-207h-98v658h98v-163h130v-85zM170 727v-352q62 0 112 1t96.5 3t93.5 6.5t103 11.5l11 -83q-54 -7 -103 -12t-107 -8t-131 -4t-173 -1v438h98zM286 -44h489v-86h-588v316h99v-230z" />
<glyph unicode="&#xb0d8;" d="M184 -146v257h469v94h-474v82h571v-256h-469v-95h495v-82h-592zM170 747v-288q62 0 112 1t96.5 3t93.5 6.5t103 11.5l11 -82q-54 -7 -103 -12t-107 -8t-131 -4t-173 -1v373h98zM880 591h-130v-78h130v-83h-130v-97h-98v449h98v-108h130v-83z" />
<glyph unicode="&#xb0e0;" d="M750 229v-368h-562v368h562zM170 732v-308q62 0 112 1t96.5 3t93.5 6.5t103 11.5l11 -83q-54 -7 -103 -12t-107 -8t-131 -4t-173 -1v394h98zM286 -55h366v200h-366v-200zM880 570h-130v-96h130v-85h-130v-115h-98v508h98v-127h130v-85z" />
<glyph unicode="&#xb0e5;" d="M198 53q0 37 19 69.5t55 57t87.5 38.5t116.5 14t116.5 -14t87.5 -38.5t55 -57t19 -69.5v-40q0 -37 -19 -69.5t-55 -57t-87.5 -38.5t-116.5 -14t-116.5 14t-87.5 38.5t-55 57t-19 69.5v40zM170 728v-323q62 0 112 1t96.5 3t93.5 6.5t103 11.5l11 -83q-54 -7 -103 -12 t-107 -8t-131 -4t-173 -1v409h98zM880 569h-130v-99h130v-85h-130v-141h-98v538h98v-128h130v-85zM295 19q0 -20 12.5 -38.5t36 -33t57 -23.5t75.5 -9t75.5 9t57 23.5t36 33t12.5 38.5v28q0 19 -12.5 38t-36 33.5t-57 23.5t-75.5 9t-75.5 -9t-57 -23.5t-36 -33.5t-12.5 -38 v-28z" />
<glyph unicode="&#xb108;" d="M693 -140v563h-252v87h252v272h99v-922h-99zM197 198h50q98 0 185.5 6t169.5 20l11 -85q-89 -16 -180.5 -22t-203.5 -6h-131v594h99v-507z" />
<glyph unicode="&#xb109;" d="M195 199h607v-348h-99v263h-508v85zM187 732v-334q62 0 112 1t96.5 3t93.5 6.5t103 11.5l10 -83q-54 -7 -103 -12t-106.5 -8t-130.5 -4t-173 -1v420h98zM704 247v295h-261v85h261v155h98v-535h-98z" />
<glyph unicode="&#xb10b;" d="M187 732v-323q62 0 112 1t96.5 3t93.5 6.5t103 11.5l10 -83q-54 -7 -103 -12t-106.5 -8t-130.5 -4t-173 -1v409h98zM704 266v276h-261v85h261v155h98v-516h-98zM688 -11q-8 -15 -20 -31.5t-41 -43.5q-35 -33 -78 -69l-61 67q21 17 39.5 33.5t44.5 40.5q19 18 32 33t20 30 t10 32.5t3 41.5v92h99v-92q0 -24 3 -41.5t10.5 -32.5t20 -30t32.5 -33q26 -24 44 -39t40 -32l-61 -70q-22 18 -41.5 35t-36.5 34q-28 27 -39.5 43.5t-19.5 31.5zM172 214h299v-363h-98v280h-201v83z" />
<glyph unicode="&#xb10c;" d="M704 124v403h-261v85h261v170h98v-658h-98zM187 727v-358q62 0 112 1t96.5 3t93.5 6.5t103 11.5l10 -83q-54 -7 -103 -12t-106.5 -8t-130.5 -4t-173 -1v444h98zM325 -44h496v-86h-595v306h99v-220z" />
<glyph unicode="&#xb110;" d="M231 -146v253h474v90h-479v82h576v-252h-474v-91h500v-82h-597zM187 747v-293q62 0 112 1t96.5 3t93.5 6.5t103 11.5l10 -81q-54 -7 -103 -12t-106.5 -8t-130.5 -4t-173 -1v377h98zM704 325v244h-261v83h261v130h98v-457h-98z" />
<glyph unicode="&#xb112;" d="M513 -144v423h289v-423h-289zM171 -144v253h190v90h-193v80h287l2 -248h-192v-93h30q24 0 44.5 0.5t41 2t42.5 4t48 5.5l7 -82q-98 -12 -204 -12h-103zM187 747v-293q62 0 112 1t96.5 3t93.5 6.5t103 11.5l10 -81q-54 -7 -103 -12t-106.5 -8t-130.5 -4t-173 -1v377h98z M704 325v244h-261v83h261v130h98v-457h-98zM709 199h-104v-263h104v263z" />
<glyph unicode="&#xb113;" d="M709 279h93v-423h-297v423h92v-127h112v127zM165 -144v253h188v90h-191v80h285v-248h-188v-93h37q24 0 43.5 0.5t39 2t40.5 4t47 5.5l7 -82q-49 -6 -97.5 -9t-100.5 -3h-110zM187 747v-293q62 0 112 1t96.5 3t93.5 6.5t103 11.5l10 -81q-54 -7 -103 -12t-106.5 -8 t-130.5 -4t-173 -1v377h98zM704 325v244h-261v83h261v130h98v-457h-98zM709 -64v136h-112v-136h112z" />
<glyph unicode="&#xb118;" d="M802 219v-358h-575v358h575zM187 732v-317q62 0 112 1t96.5 3t93.5 6.5t103 11.5l10 -83q-54 -7 -103 -12t-106.5 -8t-130.5 -4t-173 -1v403h98zM704 264v280h-261v85h261v153h98v-518h-98zM325 -55h379v190h-379v-190z" />
<glyph unicode="&#xb119;" d="M802 265v-405h-575v405h98v-117h379v117h98zM187 732v-301q62 0 112 1t96.5 3t93.5 6.5t103 11.5l10 -83q-54 -7 -103 -12t-106.5 -8t-130.5 -4t-173 -1v387h98zM704 310v236h-261v85h261v151h98v-472h-98zM704 -56v121h-379v-121h379z" />
<glyph unicode="&#xb11b;" d="M704 190v345h-261v85h261v162h98v-592h-98zM458 239h98v-92q0 -21 3 -36.5t12.5 -29t26 -25.5t43.5 -27q33 -18 83 -41t125 -54l-40 -79q-66 28 -114.5 52.5t-82.5 41.5q-48 25 -71.5 42t-32.5 31q-9 -16 -31.5 -33.5t-74.5 -43.5q-33 -17 -81 -40t-114 -51l-42 80 q74 30 125 53t84 42q26 15 42.5 28t25.5 26.5t12.5 28.5t3.5 35v92zM187 727v-324q62 0 112 1t96.5 3t93.5 6.5t103 11.5l10 -83q-54 -7 -103 -12t-106.5 -8t-130.5 -4t-173 -1v410h98z" />
<glyph unicode="&#xb11c;" d="M716 238v-95q0 -20 1.5 -34t6 -26t14 -24t24.5 -26q26 -24 59 -52t72 -57l-54 -68q-36 27 -70.5 56.5t-54.5 46.5q-20 18 -30.5 31t-15.5 21q-5 -9 -13.5 -21t-25.5 -29q-25 -24 -57.5 -52t-66.5 -54q-34 26 -66.5 54t-57.5 52q-17 17 -25.5 29t-13.5 21q-5 -8 -15.5 -21 t-30.5 -31q-20 -17 -54.5 -46.5t-70.5 -56.5l-54 68q39 29 72 57t59 52q15 14 24.5 26t14 24t6 26t1.5 34v95h96v-95q0 -21 1.5 -35.5t5.5 -26.5t12 -23.5t22 -26.5q14 -16 32 -32t42 -37q24 21 42 37t32 32q13 15 21.5 26.5t12.5 23.5t5.5 26.5t1.5 35.5v95h96zM187 732 v-314q62 0 112 1t96.5 3t93.5 6.5t103 11.5l10 -83q-54 -7 -103 -12t-106.5 -8t-130.5 -4t-173 -1v400h98zM704 281v267h-261v85h261v149h98v-501h-98z" />
<glyph unicode="&#xb11d;" d="M240 50q0 36 19.5 68t56 56t89 38t118.5 14t118.5 -14t89 -38t56 -56t19.5 -68v-40q0 -36 -19.5 -68t-56 -56t-89 -38t-118.5 -14t-118.5 14t-89 38t-56 56t-19.5 68v40zM187 728v-332q62 0 112 1t96.5 3t93.5 6.5t103 11.5l10 -83q-54 -7 -103 -12t-106.5 -8t-130.5 -4 t-173 -1v418h98zM704 238v294h-261v85h261v165h98v-544h-98zM709 44q0 18 -13 36.5t-37 32.5t-58.5 23t-77.5 9t-77.5 -9t-58.5 -23t-37 -32.5t-13 -36.5v-28q0 -18 13 -36.5t37 -32.5t58.5 -23t77.5 -9t77.5 9t58.5 23t37 32.5t13 36.5v28z" />
<glyph unicode="&#xb123;" d="M272 -8q0 28 18.5 51.5t51 40t77 25.5t97.5 9q52 0 97 -9t77.5 -25.5t51 -40t18.5 -51.5v-32q0 -29 -18.5 -52t-51 -39.5t-77.5 -25.5t-97 -9q-53 0 -97.5 9t-77 25.5t-51 39.5t-18.5 52v32zM187 747v-290q62 0 112 1t96.5 3t93.5 6.5t103 11.5l10 -81q-54 -7 -103 -12 t-106.5 -8t-130.5 -4t-173 -1v374h98zM704 309v259h-261v83h261v131h98v-473h-98zM210 235h257v85h98v-85h257v-81h-612v81zM367 -32q0 -26 41 -42.5t108 -16.5t108 16.5t41 42.5v16q0 26 -41 42.5t-108 16.5t-108 -16.5t-41 -42.5v-16z" />
<glyph unicode="&#xb124;" d="M532 763h97v-858h-97v499h-189v87h189v272zM830 -140h-97v922h97v-922zM174 695v-496h40q27 0 57.5 1t62.5 3t64.5 5.5t62.5 8.5l9 -83q-69 -12 -143 -16.5t-146 -4.5h-106v582h99z" />
<glyph unicode="&#xb125;" d="M206 200h605v-349h-99v264h-506v85zM165 726v-338q44 0 81.5 1t71 3.5t65 6.5t62.5 9l11 -85q-30 -6 -65 -10t-80.5 -6.5t-104.5 -4t-138 -1.5v425h97zM630 250h-95v270h-191v85h191v165h95v-520zM716 782h95v-534h-95v534z" />
<glyph unicode="&#xb128;" d="M630 149h-95v349h-191v85h191v187h95v-621zM318 -44h510v-86h-609v309h99v-223zM165 721v-359q44 0 81.5 1t71 3.5t65 6.5t62.5 9l11 -85q-30 -6 -65 -10t-80.5 -6.5t-104.5 -4t-138 -1.5v446h97zM716 782h95v-655h-95v655z" />
<glyph unicode="&#xb12c;" d="M223 -146v254h492v90h-497v82h593v-252h-492v-92h515v-82h-611zM165 739v-303q44 0 81.5 1t71 3.5t65 6.5t62.5 9l11 -84q-30 -6 -65 -10t-80.5 -6.5t-104.5 -4t-138 -1.5v389h97zM630 329h-95v208h-191v84h191v149h95v-441zM716 782h95v-455h-95v455z" />
<glyph unicode="&#xb134;" d="M811 217v-356h-578v356h578zM331 -55h382v188h-382v-188zM165 726v-330q44 0 81.5 1t71 3.5t65 6.5t62.5 9l11 -85q-30 -6 -65 -10t-80.5 -6.5t-104.5 -4t-138 -1.5v417h97zM630 267h-95v250h-191v85h191v168h95v-503zM716 782h95v-517h-95v517z" />
<glyph unicode="&#xb135;" d="M811 262v-402h-578v402h98v-116h382v116h98zM165 726v-310q44 0 81.5 1t71 3.5t65 6.5t62.5 9l11 -85q-30 -6 -65 -10t-80.5 -6.5t-104.5 -4t-138 -1.5v397h97zM630 310h-95v210h-191v85h191v165h95v-460zM713 -56v119h-382v-119h382zM716 782h95v-474h-95v474z" />
<glyph unicode="&#xb137;" d="M445 237h98v-93q0 -21 3 -36.5t12.5 -29t26 -25.5t43.5 -27q33 -18 83 -41t125 -54l-40 -79q-66 28 -114.5 52.5t-82.5 41.5q-48 25 -71.5 42t-32.5 31q-9 -16 -31.5 -33.5t-74.5 -43.5q-33 -17 -81 -40t-114 -51l-42 80q74 30 125 53t84 42q26 15 42.5 28t25.5 26.5 t12.5 28.5t3.5 35v93zM165 721v-334q44 0 81.5 1t71 3.5t65 6.5t62.5 9l11 -85q-30 -6 -65 -10t-80.5 -6.5t-104.5 -4t-138 -1.5v421h97zM630 283h-95v215h-191v85h191v187h95v-487zM716 782h95v-589h-95v589z" />
<glyph unicode="&#xb138;" d="M703 242v-97q0 -20 1.5 -34t6 -26t14 -24t24.5 -26q26 -24 59 -53t72 -58l-54 -68q-36 27 -70.5 57t-54.5 48q-20 19 -30.5 31.5t-15.5 20.5q-5 -9 -13.5 -21t-25.5 -29q-25 -25 -57.5 -53.5t-66.5 -54.5q-34 26 -66.5 54.5t-57.5 53.5q-17 17 -25.5 29t-13.5 21 q-5 -8 -15.5 -20.5t-30.5 -31.5q-20 -18 -54.5 -48t-70.5 -57l-54 68q39 29 72 57.5t59 53.5q15 15 24 26.5t14 23.5t6.5 26t1.5 34v97h96v-97q0 -21 1.5 -35.5t5.5 -26.5t12 -23.5t22 -26.5q27 -30 74 -71q47 41 74 71q13 15 21.5 26.5t12.5 23.5t5.5 26.5t1.5 35.5v97h96z M165 726v-329q44 0 81.5 1t71 3.5t65 6.5t62.5 9l11 -85q-30 -6 -65 -10t-80.5 -6.5t-104.5 -4t-138 -1.5v416h97zM630 296h-95v221h-191v85h191v168h95v-474zM716 782h95v-500h-95v500z" />
<glyph unicode="&#xb139;" d="M241 47q0 37 20 68.5t57.5 55t91 36.5t119.5 13t119 -13.5t90.5 -36.5t58 -54.5t20.5 -68.5v-40q0 -36 -20.5 -68t-58 -55t-90.5 -36.5t-119 -13.5t-119.5 13t-91 36.5t-57.5 55t-20 68.5v40zM720 41q0 19 -14 37t-39 31.5t-60.5 21.5t-77.5 8t-77.5 -8t-60.5 -21.5 t-39 -31.5t-14 -37v-27q0 -20 14 -37.5t39 -31.5t60.5 -22t77.5 -8t77.5 8t60.5 21.5t39 31.5t14 37v28zM165 722v-343q44 0 81.5 1t71 3.5t65 6.5t62.5 9l11 -85q-30 -6 -65 -10t-80.5 -6.5t-104.5 -4t-138 -1.5v430h97zM630 271h-95v239h-191v85h191v175h95v-499zM716 782 h95v-550h-95v550z" />
<glyph unicode="&#xb140;" d="M698 -140v464h-247v85h247v116h-247v85h247v172h99v-922h-99zM197 190h50q98 0 186 4.5t170 16.5l10 -84q-45 -7 -89 -11.5t-90.5 -7t-97 -3.5t-107.5 -1h-131v601h99v-515z" />
<glyph unicode="&#xb141;" d="M705 247v201h-261v81h261v74h-261v81h261v98h97v-535h-97zM186 732v-366q62 0 112.5 1t97 3t93.5 6.5t103 11.5l10 -82q-54 -7 -103 -12t-106.5 -8t-130.5 -4t-173 -1v451h97zM195 199h607v-348h-99v263h-508v85z" />
<glyph unicode="&#xb144;" d="M705 124v304h-261v81h261v80h-261v81h261v112h97v-658h-97zM186 727v-387q62 0 112.5 1t97 3t93.5 6.5t103 11.5l10 -82q-54 -7 -103 -12t-106.5 -8t-130.5 -4t-173 -1v472h97zM325 -44h496v-86h-595v286h99v-200z" />
<glyph unicode="&#xb148;" d="M231 -146v248h474v85h-479v82h576v-247h-474v-86h500v-82h-597zM705 315v171h-261v79h261v68h-261v79h261v70h97v-467h-97zM186 747v-327q62 0 112.5 1t97 3t93.5 6.5t103 11.5l10 -79q-54 -7 -103 -12t-106.5 -8t-130.5 -4t-173 -1v409h97z" />
<glyph unicode="&#xb150;" d="M802 215v-354h-575v354h575zM705 260v201h-261v81h261v68h-261v81h261v91h97v-522h-97zM186 732v-351q62 0 112.5 1t97 3t93.5 6.5t103 11.5l10 -82q-54 -7 -103 -12t-106.5 -8t-130.5 -4t-173 -1v436h97zM325 -55h379v186h-379v-186z" />
<glyph unicode="&#xb151;" d="M802 251v-391h-575v391h98v-110h379v110h98zM705 296v174h-261v81h261v68h-261v81h261v82h97v-486h-97zM186 732v-332q62 0 112.5 1t97 3t93.5 6.5t103 11.5l10 -82q-54 -7 -103 -12t-106.5 -8t-130.5 -4t-173 -1v417h97zM704 -56v114h-379v-114h379z" />
<glyph unicode="&#xb154;" d="M716 228v-85q0 -20 1.5 -34t6 -26t14 -24t24.5 -26q26 -24 59 -52t72 -57l-54 -68q-36 27 -70.5 56.5t-54.5 46.5q-20 18 -30.5 31t-15.5 21q-5 -9 -13.5 -21t-25.5 -29q-25 -24 -57.5 -52t-66.5 -54q-34 26 -66.5 54t-57.5 52q-17 17 -25.5 29t-13.5 21q-5 -8 -15.5 -21 t-30.5 -31q-20 -17 -54.5 -46.5t-70.5 -56.5l-54 68q39 29 72 57t59 52q15 14 24.5 26t14 24t6 26t1.5 34v85h96v-85q0 -21 1.5 -35.5t5.5 -26.5t12 -23.5t22 -26.5q14 -16 32 -32t42 -37q24 21 42 37t32 32q13 15 21.5 26.5t12.5 23.5t5.5 26.5t1.5 35.5v85h96zM705 271 v190h-261v81h261v68h-261v81h261v91h97v-511h-97zM186 732v-347q62 0 112.5 1t97 3t93.5 6.5t103 11.5l10 -82q-54 -7 -103 -12t-106.5 -8t-130.5 -4t-173 -1v432h97z" />
<glyph unicode="&#xb155;" d="M240 50q0 36 19.5 68t56 56t89 38t118.5 14t118.5 -14t89 -38t56 -56t19.5 -68v-40q0 -36 -19.5 -68t-56 -56t-89 -38t-118.5 -14t-118.5 14t-89 38t-56 56t-19.5 68v40zM705 238v213h-261v81h261v68h-261v81h261v101h97v-544h-97zM186 728v-355q62 0 112.5 1t97 3 t93.5 6.5t103 11.5l10 -82q-54 -7 -103 -12t-106.5 -8t-130.5 -4t-173 -1v440h97zM709 44q0 18 -13 36.5t-37 32.5t-58.5 23t-77.5 9t-77.5 -9t-58.5 -23t-37 -32.5t-13 -36.5v-28q0 -18 13 -36.5t37 -32.5t58.5 -23t77.5 -9t77.5 9t58.5 23t37 32.5t13 36.5v28z" />
<glyph unicode="&#xb158;" d="M195 55l508 6v67h-503v85h602v-362h-99v131l-505 -9zM705 261v205h-261v81h261v66h-261v81h261v88h97v-521h-97zM186 732v-348q62 0 112.5 1t97 3t93.5 6.5t103 11.5l10 -82q-54 -7 -103 -12t-106.5 -8t-130.5 -4t-173 -1v433h97z" />
<glyph unicode="&#xb15c;" d="M543 763h96v-858h-96v404h-200v83h200v106h-200v83h200v182zM830 -140h-96v922h96v-922zM174 695v-505h40q35 0 65.5 1t59.5 3t58 5.5t60 8.5l11 -86q-61 -11 -134 -15t-163 -4h-96v592h99z" />
<glyph unicode="&#xb160;" d="M639 149h-94v271h-201v83h201v77h-201v83h201v107h94v-621zM320 -44h505v-86h-604v306h99v-220zM165 721v-385q44 0 81.5 1t71 3t65 5.5t62.5 8.5l11 -85q-30 -5 -65 -9t-80.5 -6.5t-104.5 -3.5t-138 -1v472h97zM717 782h94v-655h-94v655z" />
<glyph unicode="&#xb178;" d="M246 705v-336h524v-84h-265v-218h373v-84h-846v84h373v218h-258v420h99z" />
<glyph unicode="&#xb179;" d="M258 517h499v-84h-252v-102h373v-84h-846v84h373v102h-245v319h98v-235zM141 162h619v-311h-99v227h-520v84z" />
<glyph unicode="&#xb17c;" d="M258 746v-240h499v-84h-252v-119h373v-84h-846v84h373v119h-245v324h98zM253 -44h521v-86h-620v273h99v-187z" />
<glyph unicode="&#xb180;" d="M153 -146v233h506v72h-511v81h608v-232h-506v-73h533v-81h-630zM258 760v-198h499v-83h-252v-87h373v-82h-846v82h373v87h-245v281h98z" />
<glyph unicode="&#xb182;" d="M258 760v-198h499v-83h-252v-87h373v-82h-846v82h373v87h-245v281h98zM485 -145v385h288v-385h-288zM138 -145v234h193v72h-196v79h290v-228h-193v-76h31q24 0 44.5 0.5t41 2t42.5 4t48 5.5l7 -81q-98 -12 -204 -12h-104zM680 162h-103v-229h103v229z" />
<glyph unicode="&#xb188;" d="M757 -139h-604v325h604v-325zM258 752v-219h499v-84h-252v-97h373v-84h-846v84h373v97h-245v303h98zM659 103h-408v-159h408v159z" />
<glyph unicode="&#xb189;" d="M757 221v-361h-604v361h98v-95h408v95h98zM258 757v-215h499v-84h-252v-99h373v-84h-846v84h373v99h-245v299h98zM659 -56v101h-408v-101h408z" />
<glyph unicode="&#xb18b;" d="M258 752v-224h499v-84h-252v-109h373v-84h-846v84h373v109h-245v308h98zM504 201v-68q0 -16 2.5 -29t12.5 -26t29 -26.5t51 -30.5q36 -19 87.5 -41.5t123.5 -51.5l-41 -79q-63 26 -113 48.5t-88 40.5q-58 27 -82 44.5t-31 28.5q-8 -12 -32 -29t-81 -45q-37 -18 -86.5 -40 t-115.5 -50l-41 80q73 30 123.5 52t87.5 42q32 17 51 31t28.5 26.5t12.5 25.5t3 29v68h99z" />
<glyph unicode="&#xb18d;" d="M455 -166q-66 0 -119.5 12.5t-91 35t-57.5 53t-20 65.5v34q0 36 20 66.5t57.5 52.5t91 34.5t119.5 12.5t119 -12.5t90.5 -35t58 -52.5t20.5 -66v-34q0 -35 -20 -65t-57.5 -52.5t-91 -35.5t-119.5 -13zM258 752v-226h499v-84h-252v-101h373v-84h-846v84h373v101h-245v310 h98zM455 119q-42 0 -77 -7.5t-60 -20t-39 -29t-14 -34.5v-22q0 -18 14 -34.5t39 -29t60 -20t77 -7.5t77 7.5t60 20t39 29t14 34.5v22q0 18 -14 34.5t-39 29t-60 20t-77 7.5z" />
<glyph unicode="&#xb192;" d="M139 -58h117v172h-112v80h622v-80h-112v-172h117v-80h-632v80zM258 755v-213h499v-84h-252v-98h373v-84h-846v84h373v98h-245v297h98zM353 -58h204v172h-204v-172z" />
<glyph unicode="&#xb193;" d="M258 761v-189h496v-83h-249v-87h373v-81h-846v81h373v87h-245v272h98zM204 -32q0 29 19 50.5t53 35.5t79.5 21t99.5 7t99.5 -7t79.5 -21t53 -35.5t19 -50.5v-20q0 -29 -19 -50.5t-53 -35.5t-79.5 -21t-99.5 -7t-99.5 7t-79.5 21t-53 35.5t-19 50.5v20zM124 203h281v79 h100v-79h281v-81h-662v81zM300 -46q0 -13 11.5 -21.5t32.5 -14t49.5 -8t61.5 -2.5t61.5 2.5t49.5 8t32.5 14t11.5 21.5v8q0 25 -44 35.5t-111 10.5t-111 -10.5t-44 -35.5v-8z" />
<glyph unicode="&#xb194;" d="M198 705v-285h354v-84h-178v-190q66 3 124.5 7t118.5 10l9 -83q-63 -6 -126.5 -10.5t-134 -7.5t-151.5 -4.5t-179 -1.5v86q69 -1 127 -0.5t111 1.5v193h-174v369h99zM908 345h-138v-485h-98v922h98v-351h138v-86z" />
<glyph unicode="&#xb198;" d="M197 739v-225h354v-84h-183v-124q64 2 121 6t122 10l8 -82q-60 -6 -115.5 -10.5t-122 -7t-150.5 -4t-199 -1.5v85h130t108 1v127h-172v309h99zM668 92v690h98v-286h130v-86h-130v-318h-98zM277 -46h514v-85h-613v263h99v-178z" />
<glyph unicode="&#xb19c;" d="M167 -146v235h502v69h-507v82h604v-231h-506v-73h533v-82h-626zM197 749v-183h354v-82h-183v-90q64 2 121 6t122 10l8 -80q-60 -6 -115.5 -10.5t-122 -7t-150.5 -4t-199 -1.5v83h130t108 1v93h-172v265h99zM668 274v508h98v-194h130v-86h-130v-228h-98z" />
<glyph unicode="&#xb1a8;" d="M197 744v-201h354v-84h-183v-105q64 2 121 6t122 10l8 -82q-60 -6 -115.5 -10.5t-122 -7t-150.5 -4t-199 -1.5v85h130t108 1v108h-172v285h99zM689 205v-62q0 -20 1.5 -34t6 -26t14 -24t24.5 -26q26 -24 59 -52t72 -57l-54 -68q-36 27 -70.5 56.5t-54.5 46.5 q-20 18 -30.5 31t-15.5 21q-5 -9 -13.5 -21t-25.5 -29q-25 -24 -57.5 -52t-66.5 -54q-34 26 -66.5 54t-57.5 52q-17 17 -25.5 29t-13.5 21q-5 -8 -15.5 -21t-30.5 -31q-20 -17 -54.5 -46.5t-70.5 -56.5l-54 68q39 29 72 57t59 52q15 14 24.5 26t14 24t6 26t1.5 34v62h96v-62 q0 -21 1.5 -35.5t5.5 -26.5t12 -23.5t22 -26.5q14 -16 32 -32t42 -37q24 21 42 37t32 32q13 15 21.5 26.5t12.5 23.5t5.5 26.5t1.5 35.5v62h96zM668 254v528h98v-212h130v-86h-130v-230h-98z" />
<glyph unicode="&#xb1cc;" d="M219 705v-285h361v-84h-180v-197q68 3 129 7t121 10l9 -83q-63 -6 -129 -10.5t-139.5 -7.5t-157 -4.5t-181.5 -1.5v86q70 -1 131 -0.5t116 1.5v200h-179v369h99zM709 -140v922h98v-922h-98z" />
<glyph unicode="&#xb1d0;" d="M222 739v-228h355v-84h-182v-125q66 2 124 6t124 10l8 -82q-60 -6 -117 -10.5t-125.5 -7t-154 -4t-200.5 -1.5v85h132.5t110.5 1v128h-174v312h99zM297 -46h524v-85h-623v271h99v-186zM704 92v690h98v-690h-98z" />
<glyph unicode="&#xb1d4;" d="M203 -146v235h502v69h-507v82h604v-231h-506v-73h533v-82h-626zM222 749v-183h355v-82h-182v-90q66 2 124 6t124 10l7 -80q-60 -6 -117 -10.5t-125 -7t-153.5 -4t-200.5 -1.5v83h132.5t110.5 1v93h-174v265h99zM704 274v508h98v-508h-98z" />
<glyph unicode="&#xb1dc;" d="M802 189v-328h-596v328h596zM222 744v-205h355v-84h-182v-96q66 2 124 6t124 10l8 -82q-60 -6 -117 -10.5t-125.5 -7t-154 -4t-200.5 -1.5v85h132.5t110.5 1v99h-174v289h99zM304 -55h400v160h-400v-160zM704 234v548h98v-548h-98z" />
<glyph unicode="&#xb1dd;" d="M802 217v-357h-603v357h98v-98h407v98h98zM222 744v-200h355v-84h-182v-98q66 2 124 6t124 10l8 -82q-60 -6 -117 -10.5t-125.5 -7t-154 -4t-200.5 -1.5v85h132.5t110.5 1v101h-174v284h99zM704 264v518h98v-518h-98zM704 -53v90h-407v-90h407z" />
<glyph unicode="&#xb1df;" d="M222 744v-212h355v-84h-182v-100q66 2 124 6t124 10l8 -82q-60 -6 -117 -10.5t-125.5 -7t-154 -4t-200.5 -1.5v85h132.5t110.5 1v103h-174v296h99zM442 216h98v-72q0 -21 3 -36.5t12.5 -28t26 -24.5t43.5 -27q33 -18 82.5 -40.5t124.5 -53.5l-38 -79q-66 28 -115 51.5 t-83 40.5q-48 25 -71.5 42t-32.5 31q-9 -16 -31.5 -33.5t-74.5 -43.5q-33 -17 -81.5 -39t-114.5 -50l-40 80q74 30 124.5 52t83.5 41q26 15 42.5 27.5t25.5 26t12.5 28.5t3.5 35v72zM704 169v613h98v-613h-98z" />
<glyph unicode="&#xb1e8;" d="M878 67v-84h-846v84h238v223h-123v415h99v-331h524v-84h-130v-223h238zM368 67h174v223h-174v-223z" />
<glyph unicode="&#xb1e9;" d="M258 520h499v-84h-112v-114h233v-84h-846v84h233v114h-105v316h98v-232zM141 155h619v-304h-99v220h-520v84zM363 322h184v114h-184v-114z" />
<glyph unicode="&#xb1ec;" d="M258 746v-238h499v-84h-112v-129h233v-84h-846v84h233v129h-105v322h98zM253 -44h521v-86h-620v272h99v-186zM363 295h184v129h-184v-129z" />
<glyph unicode="&#xb1f0;" d="M878 381v-81h-846v81h233v99h-105v280h98v-197h499v-83h-112v-99h233zM153 -146v231h506v70h-511v81h608v-230h-506v-71h533v-81h-630zM363 381h184v99h-184v-99z" />
<glyph unicode="&#xb1f9;" d="M258 757v-214h499v-84h-112v-106h233v-84h-846v84h233v106h-105v298h98zM757 215v-355h-604v355h98v-92h408v92h98zM659 -56v98h-408v-98h408zM363 353h184v106h-184v-106z" />
<glyph unicode="&#xb1fb;" d="M258 752v-223h499v-84h-112v-117h233v-84h-846v84h233v117h-105v307h98zM504 197v-64q0 -16 2.5 -29t12.5 -26t29 -26.5t51 -30.5q36 -19 87.5 -41.5t123.5 -51.5l-41 -79q-63 26 -113 48.5t-88 40.5q-58 27 -82 44.5t-31 28.5q-8 -12 -32 -29t-81 -45q-37 -18 -86.5 -40 t-115.5 -50l-41 80q73 30 123.5 52t87.5 42q32 17 51 31t28.5 26.5t12.5 25.5t3 29v64h99zM363 328h184v117h-184v-117z" />
<glyph unicode="&#xb1fd;" d="M258 752v-225h499v-84h-112v-110h233v-84h-846v84h233v110h-105v309h98zM455 -166q-66 0 -119.5 12.5t-91 34.5t-57.5 52t-20 65v34q0 36 20 66t57.5 52t91 34t119.5 12t119 -12.5t90.5 -34t58 -51.5t20.5 -66v-34q0 -35 -20 -65t-57.5 -52t-91 -34.5t-119.5 -12.5z M455 115q-42 0 -77 -7t-60 -19.5t-39 -28.5t-14 -34v-22q0 -18 14 -34t39 -28.5t60 -19.5t77 -7t77 7t60 19.5t39 28.5t14 34v22q0 18 -14 34t-39 28.5t-60 19.5t-77 7zM363 333h184v110h-184v-110z" />
<glyph unicode="&#xb204;" d="M405 -140v323h-373v84h846v-84h-373v-323h-100zM249 751v-283h518v-85h-617v368h99z" />
<glyph unicode="&#xb205;" d="M141 165h264v107h-373v84h846v-84h-373v-107h255v-314h-99v230h-520v84zM258 524h499v-84h-597v312h98v-228z" />
<glyph unicode="&#xb208;" d="M417 59v189h-385v84h846v-84h-361v-189h-100zM258 746v-233h499v-84h-597v317h98zM253 -44h521v-86h-620v281h99v-195z" />
<glyph unicode="&#xb20b;" d="M32 293v84h846v-84h-373v-106h254v-85h-506v-156h522v-85h-621v326h251v106h-373zM258 548h499v-84h-597v288h98v-204z" />
<glyph unicode="&#xb20c;" d="M878 410v-82h-373v-88h251v-232h-506v-73h533v-81h-630v233h506v72h-511v81h257v88h-373v82h846zM258 760v-198h499v-83h-597v281h98z" />
<glyph unicode="&#xb214;" d="M878 378v-84h-373v-105h252v-328h-604v328h252v105h-373v84h846zM258 752v-206h499v-84h-597v290h98zM659 106h-408v-162h408v162z" />
<glyph unicode="&#xb215;" d="M757 218v-358h-604v358h98v-100h408v100h98zM32 303v84h846v-84h-373v-117h-100v117h-373zM258 757v-207h499v-84h-597v291h98zM659 -56v93h-408v-93h408z" />
<glyph unicode="&#xb217;" d="M405 199v93h-373v84h846v-84h-373v-93h-100zM504 166v-36q0 -16 2.5 -29t12.5 -26t29 -26.5t51 -30.5q36 -19 87 -39.5t123 -49.5l-39 -80q-63 25 -113.5 46.5t-88.5 39.5q-58 27 -82 44.5t-31 28.5q-8 -12 -32 -29t-81 -45q-37 -18 -87 -39.5t-116 -47.5l-39 81 q73 29 123 49.5t87 40.5q32 17 51 31t28.5 26.5t12.5 25.5t3 29v36h99zM258 755v-220h499v-84h-597v304h98z" />
<glyph unicode="&#xb219;" d="M455 -166q-66 0 -119.5 12.5t-91 35t-57.5 53t-20 65.5v34q0 32 16.5 60t47.5 49.5t75 35.5t99 19v84h-373v84h846v-84h-373v-84q55 -5 99 -19t75 -35.5t47.5 -49.5t16.5 -60v-34q0 -35 -20 -65t-57.5 -52.5t-91 -35.5t-119.5 -13zM258 752v-220h499v-84h-597v304h98z M455 119q-42 0 -77 -7.5t-60 -20t-39 -29t-14 -34.5v-22q0 -18 14 -34.5t39 -29t60 -20t77 -7.5t77 7.5t60 20t39 29t14 34.5v22q0 18 -14 34.5t-39 29t-60 20t-77 7.5z" />
<glyph unicode="&#xb220;" d="M709 -140v200h-202v85h202v637h98v-922h-98zM288 -112v334q-54 -1 -112 -1.5t-124 -0.5v86q99 0 181.5 1t154.5 3.5t136.5 6.5t126.5 10l8 -83q-64 -7 -130 -11.5t-141 -7.5v-337h-100zM216 740v-242h364v-85h-463v327h99z" />
<glyph unicode="&#xb234;" d="M701 177v-55q0 -17 1.5 -29.5t6.5 -23t14 -21.5t24 -24q26 -24 59 -49t72 -51l-53 -69q-37 26 -71 52.5t-55 43.5q-20 17 -30.5 28.5t-15.5 19.5q-5 -9 -13.5 -18.5t-25.5 -25.5q-25 -23 -56.5 -48.5t-67.5 -51.5q-36 26 -67.5 51.5t-56.5 48.5q-17 16 -25.5 25.5 t-13.5 18.5q-5 -8 -15.5 -19.5t-30.5 -28.5q-21 -17 -55 -43.5t-71 -52.5l-53 69q39 26 72 51t59 49q15 13 24 24t14 21.5t6.5 23t1.5 29.5v55h96v-55q0 -18 1.5 -31t6 -23.5t12.5 -21t21 -24.5q29 -31 74 -61q45 30 74 61q13 14 21 24.5t12.5 21t6 23.5t1.5 31v55h96z M704 209v28h-195v80h195v465h98v-573h-98zM275 215v132q-48 -2 -104 -2h-122v83q109 0 189.5 1t147.5 3.5t126.5 6.5t125.5 10l8 -80q-66 -7 -130 -11.5t-143 -7.5v-135h-98zM224 751v-172h356v-84h-455v256h99z" />
<glyph unicode="&#xb23c;" d="M564 763h97v-878h-97v207h-158v83h158v588zM838 -140h-97v922h97v-922zM228 -81v326q-44 -1 -91.5 -1h-104.5v85q78 0 139.5 0.5t117.5 1.5t110 3t117 6l4 -82q-54 -5 -100.5 -7t-93.5 -4v-328h-98zM190 740v-231h287v-85h-385v316h98z" />
<glyph unicode="&#xb258;" d="M709 -140v922h98v-922h-98zM296 -112v324q-55 -2 -115.5 -2h-128.5v86q99 0 181.5 1t154.5 3.5t136.5 6.5t126.5 10l8 -83q-63 -7 -126.5 -11.5t-135.5 -7.5v-327h-101zM214 740v-242h369v-85h-468v327h99z" />
<glyph unicode="&#xb25c;" d="M704 68v714h98v-714h-98zM297 -46h524v-85h-623v249h99v-164zM300 147v132q-53 -2 -115 -2h-138v85q109 0 189.5 1t147.5 3t126.5 6t125.5 10l8 -82q-61 -6 -119 -10.5t-127 -7.5v-135h-98zM225 744v-210h353v-84h-452v294h99z" />
<glyph unicode="&#xb260;" d="M203 -146v220h502v60h-507v81h604v-219h-506v-61h533v-81h-626zM287 252v95q-51 -1 -109.5 -1h-130.5v83q109 0 191 0.5t150 2.5t127 5t121 8l7 -80q-63 -6 -123.5 -10t-134.5 -6v-97h-98zM225 755v-171h353v-82h-452v253h99zM704 249v533h98v-533h-98z" />
<glyph unicode="&#xb268;" d="M802 175v-314h-596v314h596zM285 215v108q-51 -2 -109 -2h-129v85q109 0 189.5 1t147.5 3t126.5 6t125.5 10l8 -82q-64 -7 -125.5 -11.5t-135.5 -6.5v-111h-98zM304 -55h400v146h-400v-146zM225 750v-179h353v-84h-452v263h99zM704 215v567h98v-567h-98z" />
<glyph unicode="&#xb269;" d="M802 192v-332h-603v332h98v-84h407v84h98zM285 221v106q-51 -2 -109 -2h-129v85q109 0 189.5 1t147.5 3t126.5 6t125.5 10l8 -82q-64 -7 -125.5 -11.5t-135.5 -6.5v-109h-98zM225 751v-177h353v-84h-452v261h99zM704 231v551h98v-551h-98zM704 -53v79h-407v-79h407z" />
<glyph unicode="&#xb274;" d="M566 -138v321h-222v-321h-99v321h-213v84h846v-84h-213v-321h-99zM249 751v-279h518v-85h-617v364h99z" />
<glyph unicode="&#xb275;" d="M141 163h120v115h-229v84h846v-84h-229v-115h111v-312h-99v228h-520v84zM258 526h499v-84h-597v310h98v-226zM360 163h190v115h-190v-115z" />
<glyph unicode="&#xb27c;" d="M878 415v-82h-229v-93h107v-232h-506v-73h533v-81h-630v233h506v72h-511v81h113v93h-229v82h846zM258 760v-195h499v-83h-597v278h98zM360 240h190v93h-190v-93z" />
<glyph unicode="&#xb284;" d="M878 384v-84h-229v-113h108v-326h-604v326h108v113h-229v84h846zM258 752v-205h499v-84h-597v289h98zM659 104h-408v-160h408v160zM360 187h190v113h-190v-113z" />
<glyph unicode="&#xb285;" d="M757 212v-352h-604v352h98v-97h408v97h98zM32 306v84h846v-84h-263v-128h-96v128h-128v-128h-96v128h-263zM258 757v-204h499v-84h-597v288h98zM659 -56v90h-408v-90h408z" />
<glyph unicode="&#xb289;" d="M455 -166q-66 0 -119.5 12.5t-91 34.5t-57.5 52t-20 65v34q0 37 21 67.5t60 52.5v131h-216v84h846v-84h-216v-132q39 -22 60 -52.5t21 -66.5v-34q0 -35 -20 -65t-57.5 -52t-91 -34.5t-119.5 -12.5zM258 752v-218h499v-84h-597v302h98zM455 115q-42 0 -77 -7t-60 -19.5 t-39 -28.5t-14 -34v-22q0 -18 14 -34t39 -28.5t60 -19.5t77 -7t77 7t60 19.5t39 28.5t14 34v22q0 18 -14 34t-39 28.5t-60 19.5t-77 7zM455 196q30 0 57 -2.5t52 -7.5v97h-218v-97q24 5 51.5 7.5t57.5 2.5z" />
<glyph unicode="&#xb290;" d="M245 703v-346h525v-84h-624v430h99zM878 67v-84h-846v84h846z" />
<glyph unicode="&#xb291;" d="M878 344v-84h-846v84h846zM141 167h619v-316h-99v232h-520v84zM258 517h499v-84h-597v317h98v-233z" />
<glyph unicode="&#xb294;" d="M878 316v-84h-846v84h846zM253 -44h521v-86h-620v278h99v-192zM258 746v-240h499v-84h-597v324h98z" />
<glyph unicode="&#xb298;" d="M153 -146v237h506v76h-511v81h608v-236h-506v-77h533v-81h-630zM878 405v-82h-846v82h846zM258 758v-197h499v-83h-597v280h98z" />
<glyph unicode="&#xb299;" d="M137 -144v237h204v76h-207v79h301v-232h-204v-79h62q55 0 103.5 2t102.5 10l7 -81q-57 -7 -115.5 -9.5t-118.5 -2.5h-135zM479 248h290v-398h-98v314h-192v84zM878 405v-82h-846v82h846zM258 758v-197h499v-83h-597v280h98z" />
<glyph unicode="&#xb29a;" d="M138 -145v238h193v76h-196v79h290v-232h-193v-80h31q24 0 44.5 0.5t41 2t42.5 4t48 5.5l7 -81q-98 -12 -204 -12h-104zM485 -145v393h288v-393h-288zM680 170h-103v-237h103v237zM878 405v-82h-846v82h846zM258 758v-197h499v-83h-597v280h98z" />
<glyph unicode="&#xb2a0;" d="M757 -139h-604v330h604v-330zM659 108h-408v-164h408v164zM878 361v-84h-846v84h846zM258 750v-219h499v-84h-597v303h98z" />
<glyph unicode="&#xb2a1;" d="M757 225v-365h-604v365h98v-97h408v97h98zM258 755v-217h499v-84h-597v301h98zM878 371v-84h-846v84h846zM659 -56v103h-408v-103h408z" />
<glyph unicode="&#xb2a3;" d="M878 344v-84h-846v84h846zM258 750v-224h499v-84h-597v308h98zM504 207v-74q0 -16 2.5 -29t12.5 -26t29 -26.5t51 -30.5q36 -19 87.5 -41.5t123.5 -51.5l-41 -79q-63 26 -113 48.5t-88 40.5q-58 27 -82 44.5t-31 28.5q-8 -12 -32 -29t-81 -45q-37 -18 -86.5 -40 t-115.5 -50l-41 80q73 30 123.5 52t87.5 42q32 17 51 31t28.5 26.5t12.5 25.5t3 29v74h99z" />
<glyph unicode="&#xb2a5;" d="M455 -166q-66 0 -119.5 12.5t-91 35t-57.5 53t-20 65.5v34q0 36 20 66.5t57.5 52.5t91 34.5t119.5 12.5t119 -12.5t90.5 -35t58 -52.5t20.5 -66v-34q0 -35 -20 -65t-57.5 -52.5t-91 -35.5t-119.5 -13zM455 119q-42 0 -77 -7.5t-60 -20t-39 -29t-14 -34.5v-22 q0 -18 14 -34.5t39 -29t60 -20t77 -7.5t77 7.5t60 20t39 29t14 34.5v22q0 18 -14 34.5t-39 29t-60 20t-77 7.5zM878 350v-84h-846v84h846zM258 750v-222h499v-84h-597v306h98z" />
<glyph unicode="&#xb2a6;" d="M777 202v-81h-273v-2q0 -17 3.5 -31t12.5 -26t25.5 -24t42.5 -24q36 -17 84.5 -35.5t120.5 -44.5l-36 -79q-56 20 -109 41t-87 36q-53 23 -75 39.5t-30 32.5q-8 -16 -30.5 -33.5t-75.5 -40.5q-35 -16 -88 -36t-109 -40l-36 80q72 26 120.5 44.5t84.5 35.5q26 12 42.5 24 t25.5 24t12.5 26t3.5 31v2h-273v81h644zM878 371v-84h-846v84h846zM258 750v-213h499v-84h-597v297h98z" />
<glyph unicode="&#xb2aa;" d="M139 -58h117v172h-112v80h622v-80h-112v-172h117v-80h-632v80zM878 371v-84h-846v84h846zM258 755v-213h499v-84h-597v297h98zM353 -58h204v172h-204v-172z" />
<glyph unicode="&#xb2ac;" d="M659 91q-63 -6 -129 -10.5t-139.5 -7.5t-157 -4.5t-181.5 -1.5v86q99 0 181.5 1t154.5 3.5t136 6.5t126 10zM709 -140v922h98v-922h-98zM212 709v-297h363v-84h-462v381h99z" />
<glyph unicode="&#xb2b0;" d="M704 94v688h98v-688h-98zM297 -46h524v-85h-623v281h99v-196zM651 258q-60 -6 -117 -10.5t-125.5 -7t-154 -4t-200.5 -1.5v85q109 0 189.5 1t147.5 3t126.5 6t125.5 10zM224 739v-228h355v-84h-454v312h99z" />
<glyph unicode="&#xb2b4;" d="M704 278v504h98v-504h-98zM203 -146v234h502v71h-507v85h604v-235h-506v-74h533v-81h-626zM650 348q-60 -6 -117 -10.5t-125 -7t-153.5 -4t-200.5 -1.5v83q109 0 189.5 1t147.5 3t126.5 6t125.5 10zM224 749v-179h355v-82h-454v261h99z" />
<glyph unicode="&#xb2c8;" d="M702 -140v922h99v-922h-99zM206 706v-512h89q83 0 160.5 5.5t154.5 19.5l11 -86q-44 -8 -83 -13t-80.5 -8t-87.5 -4t-103 -1h-161v599h100z" />
<glyph unicode="&#xb2c9;" d="M698 257v525h98v-525h-98zM189 209h607v-358h-99v273h-508v85zM196 732v-324q62 0 113.5 1t100 3t97 6.5t104.5 11.5l10 -83q-54 -7 -104.5 -12t-110 -8t-134 -4t-174.5 -1v410h98z" />
<glyph unicode="&#xb2cc;" d="M698 125v657h98v-657h-98zM319 -44h496v-86h-595v316h99v-230zM196 727v-352q62 0 113.5 1t100 3t97 6.5t104.5 11.5l10 -83q-54 -7 -104.5 -12t-110 -8t-134 -4t-174.5 -1v438h98z" />
<glyph unicode="&#xb2d0;" d="M698 333v449h98v-449h-98zM225 -146v257h474v94h-479v82h576v-256h-474v-95h500v-82h-597zM196 747v-288q62 0 113.5 1t100 3t97 6.5t104.5 11.5l10 -82q-54 -7 -104.5 -12t-110 -8t-134 -4t-174.5 -1v373h98z" />
<glyph unicode="&#xb2d2;" d="M165 -144v256h192v93h-195v80h289v-251h-192v-96h30q24 0 44.5 0.5t41 2t42.5 4t48 5.5l7 -82q-98 -12 -204 -12h-103zM698 331v451h98v-451h-98zM509 -144v429h287v-429h-287zM703 205h-102v-269h102v269zM196 747v-288q62 0 113.5 1t100 3t97 6.5t104.5 11.5l10 -82 q-54 -7 -104.5 -12t-110 -8t-134 -4t-174.5 -1v373h98z" />
<glyph unicode="&#xb2d8;" d="M698 274v508h98v-508h-98zM796 229v-368h-575v368h575zM196 732v-308q62 0 113.5 1t100 3t97 6.5t104.5 11.5l10 -83q-54 -7 -104.5 -12t-110 -8t-134 -4t-174.5 -1v394h98zM319 -55h379v200h-379v-200z" />
<glyph unicode="&#xb2d9;" d="M796 265v-405h-575v405h98v-117h379v117h98zM196 732v-293q62 0 113.5 1t100 3t97 6.5t104.5 11.5l10 -83q-54 -7 -104.5 -12t-110 -8t-134 -4t-174.5 -1v379h98zM698 310v472h98v-472h-98zM698 -56v121h-379v-121h379z" />
<glyph unicode="&#xb2db;" d="M452 239h50h48v-92q0 -21 3 -36.5t12.5 -29t26 -25.5t43.5 -27q33 -18 83 -41t125 -54l-40 -79q-66 28 -114.5 52.5t-82.5 41.5q-48 25 -71.5 42t-32.5 31q-9 -16 -31.5 -33.5t-74.5 -43.5q-33 -17 -81 -40t-114 -51l-42 80q74 30 125 53t84 42q26 15 42.5 28t25.5 26.5 t12.5 28.5t3.5 35v92zM196 727v-320q62 0 113.5 1t100 3t97 6.5t104.5 11.5l10 -83q-54 -7 -104.5 -12t-110 -8t-134 -4t-174.5 -1v406h98zM698 190v592h98v-592h-98z" />
<glyph unicode="&#xb2dd;" d="M698 238v544h98v-544h-98zM234 50q0 36 19.5 68t56 56t89 38t118.5 14t118.5 -14t89 -38t56 -56t19.5 -68v-40q0 -36 -19.5 -68t-56 -56t-89 -38t-118.5 -14t-118.5 14t-89 38t-56 56t-19.5 68v40zM703 44q0 18 -13 36.5t-37 32.5t-58.5 23t-77.5 9t-77.5 -9t-58.5 -23 t-37 -32.5t-13 -36.5v-28q0 -18 13 -36.5t37 -32.5t58.5 -23t77.5 -9t77.5 9t58.5 23t37 32.5t13 36.5v28zM196 728v-323q62 0 113.5 1t100 3t97 6.5t104.5 11.5l10 -83q-54 -7 -104.5 -12t-110 -8t-134 -4t-174.5 -1v409h98z" />
<glyph unicode="&#xb2e2;" d="M191 -57h111v195h-106v81h607v-81h-106v-195h111v-81h-617v81zM196 732v-308q62 0 113.5 1t100 3t97 6.5t104.5 11.5l10 -83q-54 -7 -104.5 -12t-110 -8t-134 -4t-174.5 -1v394h98zM698 264v518h98v-518h-98zM398 -57h203v195h-203v-195z" />
<glyph unicode="&#xb2e4;" d="M502 613h-325v-424h53q98 0 183.5 6.5t170.5 19.5l13 -83q-89 -16 -182.5 -22.5t-205.5 -6.5h-131v596h424v-86zM896 363h-142v-503h-99v922h99v-333h142v-86z" />
<glyph unicode="&#xb2e5;" d="M588 331q-53 -7 -99 -11t-102 -6.5t-130 -3.5t-182 -1v419h427v-85h-330v-249q77 0 130.5 1t97.5 3t85 5.5t93 9.5zM177 199h583v-348h-99v263h-484v85zM891 480h-131v-233h-98v535h98v-216h131v-86z" />
<glyph unicode="&#xb2e6;" d="M588 331q-53 -7 -99 -11t-102 -6.5t-130 -3.5t-182 -1v419h427v-85h-330v-249q77 0 130.5 1t97.5 3t85 5.5t93 9.5zM891 480h-131v-229h-98v531h98v-216h131v-86zM138 203h301v-352h-98v267h-203v85zM477 203h283v-352h-98v267h-185v85z" />
<glyph unicode="&#xb2e8;" d="M588 305q-53 -7 -99 -11t-102 -6.5t-130 -3.5t-182 -1v439h427v-85h-330v-269q77 0 130.5 1t97.5 3t85 5.5t93 9.5zM891 456h-131v-332h-98v658h98v-240h131v-86zM296 -44h489v-86h-588v306h99v-220z" />
<glyph unicode="&#xb2eb;" d="M760 215v-85h-463v-184h480v-85h-579v354h562zM588 347q-53 -7 -99 -11t-102 -6.5t-130 -3.5t-182 -1v403h427v-85h-330v-233q77 0 130.5 1t97.5 3t85 5.5t93 9.5zM891 481h-131v-221h-98v522h98v-215h131v-86z" />
<glyph unicode="&#xb2ec;" d="M194 -146v253h469v90h-474v82h571v-252h-469v-91h495v-82h-592zM588 385q-53 -7 -99 -11t-102 -6.5t-130 -3.5t-182 -1v381h427v-84h-330v-213q77 0 130.5 1t97.5 3t85 5.5t93 9.5zM891 517h-131v-192h-98v457h98v-179h131v-86z" />
<glyph unicode="&#xb2ed;" d="M588 385q-53 -7 -99 -11t-102 -6.5t-130 -3.5t-182 -1v381h427v-84h-330v-213q77 0 130.5 1t97.5 3t85 5.5t93 9.5zM143 -144v253h205v90h-208v80h303v-248h-205v-93h38q59 0 115 2.5t115 9.5l7 -82q-65 -8 -127 -10t-131 -2h-112zM662 325v457h98v-179h131v-86h-131 v-192h-98zM665 -153v351h-176v81h271v-432h-95z" />
<glyph unicode="&#xb2ee;" d="M477 -144v423h283v-423h-283zM588 385q-53 -7 -99 -11t-102 -6.5t-130 -3.5t-182 -1v381h427v-84h-330v-213q77 0 130.5 1t97.5 3t85 5.5t93 9.5zM133 -144v253h192v90h-195v80h289v-248h-192v-93h30q24 0 44.5 0.5t41 2t42.5 4t48 5.5l7 -82q-98 -12 -204 -12h-103z M662 325v457h98v-179h131v-86h-131v-192h-98zM667 199h-98v-263h98v263z" />
<glyph unicode="&#xb2ef;" d="M667 279h93v-423h-290v423h92v-127h105v127zM588 385q-53 -7 -99 -11t-102 -6.5t-130 -3.5t-182 -1v381h427v-84h-330v-213q77 0 130.5 1t97.5 3t85 5.5t93 9.5zM130 -144v253h186v90h-189v80h283v-248h-186v-93h31q24 0 43.5 0.5t39 2t40.5 4t47 5.5l7 -82 q-49 -6 -97.5 -9t-100.5 -3h-104zM662 325v457h98v-179h131v-86h-131v-192h-98zM667 -64v136h-105v-136h105z" />
<glyph unicode="&#xb2f3;" d="M588 385q-53 -7 -99 -11t-102 -6.5t-130 -3.5t-182 -1v381h427v-84h-330v-213q77 0 130.5 1t97.5 3t85 5.5t93 9.5zM134 -144v253h183v91h-186v79h280v-247h-183v-95h25q24 0 44.5 0.5t41 2t42.5 4t48 5.5l7 -81q-98 -12 -204 -12h-98zM779 -40q0 -53 -43.5 -86.5 t-113.5 -33.5t-113.5 33.5t-43.5 86.5v28q0 53 43.5 86.5t113.5 33.5t113.5 -33.5t43.5 -86.5v-28zM662 342v440h98v-177h131v-86h-131v-177h-98zM799 139h-354v79h129v82h96v-82h129v-79zM693 -16q0 23 -19 37t-52 14t-52 -14t-19 -37v-20q0 -23 19 -37t52 -14t52 14t19 37 v20z" />
<glyph unicode="&#xb2f4;" d="M760 219v-358h-562v358h562zM588 351q-53 -7 -99 -11t-102 -6.5t-130 -3.5t-182 -1v399h427v-85h-330v-229q77 0 130.5 1t97.5 3t85 5.5t93 9.5zM296 -55h366v190h-366v-190zM891 489h-131v-225h-98v518h98v-207h131v-86z" />
<glyph unicode="&#xb2f5;" d="M760 265v-405h-562v405h98v-117h366v117h98zM588 365q-53 -7 -99 -11t-102 -6.5t-130 -3.5t-182 -1v385h427v-85h-330v-215q77 0 130.5 1t97.5 3t85 5.5t93 9.5zM891 505h-131v-195h-98v472h98v-191h131v-86zM662 -56v121h-366v-121h366z" />
<glyph unicode="&#xb2f7;" d="M588 339q-53 -7 -99 -11t-102 -6.5t-130 -3.5t-182 -1v406h427v-85h-330v-236q77 0 130.5 1t97.5 3t85 5.5t93 9.5zM425 239h98v-92q0 -21 3 -36.5t12.5 -29t26 -25.5t43.5 -27q33 -18 83 -41t125 -54l-40 -79q-66 28 -114.5 52.5t-82.5 41.5q-48 25 -71.5 42t-32.5 31 q-9 -16 -31.5 -33.5t-74.5 -43.5q-33 -17 -81 -40t-114 -51l-42 80q74 30 125 53t84 42q26 15 42.5 28t25.5 26.5t12.5 28.5t3.5 35v92zM891 480h-131v-290h-98v592h98v-216h131v-86z" />
<glyph unicode="&#xb2f8;" d="M708 238v-95q0 -20 1.5 -34t6 -26t14 -24t24.5 -26q26 -24 59 -52t72 -57l-54 -68q-36 27 -70.5 56.5t-54.5 46.5q-20 18 -30.5 31t-15.5 21q-5 -9 -13.5 -21t-25.5 -29q-25 -24 -57.5 -52t-66.5 -54q-34 26 -66.5 54t-57.5 52q-17 17 -25.5 29t-13.5 21q-5 -8 -15.5 -21 t-30.5 -31q-20 -17 -54.5 -46.5t-70.5 -56.5l-54 68q39 29 72 57t59 52q15 14 24.5 26t14 24t6 26t1.5 34v95h96v-95q0 -21 1.5 -35.5t5.5 -26.5t12 -23.5t22 -26.5q14 -16 32 -32t42 -37q24 21 42 37t32 32q13 15 21.5 26.5t12.5 23.5t5.5 26.5t1.5 35.5v95h96zM588 351 q-53 -7 -99 -11t-102 -6.5t-130 -3.5t-182 -1v399h427v-85h-330v-229q77 0 130.5 1t97.5 3t85 5.5t93 9.5zM662 289v493h98v-199h131v-86h-131v-208h-98z" />
<glyph unicode="&#xb2f9;" d="M208 50q0 36 19 68t55 56t87.5 38t116.5 14t116.5 -14t87.5 -38t55 -56t19 -68v-40q0 -36 -19 -68t-55 -56t-87.5 -38t-116.5 -14t-116.5 14t-87.5 38t-55 56t-19 68v40zM588 332q-53 -7 -99 -11t-102 -6.5t-130 -3.5t-182 -1v414h427v-85h-330v-244q77 0 130.5 1t97.5 3 t85 5.5t93 9.5zM667 44q0 18 -12.5 36.5t-36 32.5t-57 23t-75.5 9t-75.5 -9t-57 -23t-36 -32.5t-12.5 -36.5v-28q0 -18 12.5 -36.5t36 -32.5t57 -23t75.5 -9t75.5 9t57 23t36 32.5t12.5 36.5v28zM891 483h-131v-245h-98v544h98v-213h131v-86z" />
<glyph unicode="&#xb2fa;" d="M774 224v-83h-243v-5q0 -18 3.5 -33t13 -28t26 -25.5t42.5 -25.5q19 -9 38.5 -19t43.5 -20.5t52.5 -23t65.5 -27.5l-37 -79q-66 28 -112 49.5t-80 38.5q-48 25 -71.5 43.5t-32.5 32.5q-9 -16 -31.5 -34t-74.5 -44q-33 -17 -78.5 -38t-111.5 -49l-38 80q73 29 120 51.5 t80 39.5q50 27 67 52t17 59v5h-247v83h588zM588 355q-53 -7 -99 -11t-102 -6.5t-130 -3.5t-182 -1v395h427v-85h-330v-225q77 0 130.5 1t97.5 3t85 5.5t93 9.5zM891 489h-131v-218h-98v511h98v-207h131v-86z" />
<glyph unicode="&#xb2fb;" d="M776 195v-82h-246q1 -16 5 -29t13.5 -25t25.5 -22.5t40 -21.5q23 -10 44 -19.5t44.5 -19t50 -19.5t61.5 -22l-36 -80q-57 21 -103.5 40.5t-88.5 37.5q-82 36 -105 73q-24 -38 -106 -74q-42 -18 -88.5 -37.5t-103.5 -40.5l-37 80q34 12 61.5 22.5t51.5 20.5t45.5 19 t42.5 19q47 22 64.5 44t19.5 54h-247v82h247v97h99v-97h246zM588 371q-53 -7 -99 -11t-102 -6.5t-130 -3.5t-182 -1v385h427v-84h-330v-217q77 0 130.5 1t97.5 3t85 5.5t93 9.5zM891 510h-131v-233h-98v505h98v-186h131v-86z" />
<glyph unicode="&#xb2ff;" d="M239 -8q0 28 18 51.5t50 40t76 25.5t97 9q52 0 96.5 -9t76.5 -25.5t50 -40t18 -51.5v-32q0 -29 -18 -52t-50 -39.5t-76.5 -25.5t-96.5 -9q-53 0 -97 9t-76 25.5t-50 39.5t-18 52v32zM588 388q-53 -7 -99 -11t-102 -6.5t-130 -3.5t-182 -1v376h427v-84h-330v-208 q77 0 130.5 1t97.5 3t85 5.5t93 9.5zM891 513h-131v-204h-98v473h98v-183h131v-86zM178 235h252v85h98v-85h254v-81h-604v81zM334 -32q0 -26 39.5 -42.5t106.5 -16.5t106.5 16.5t39.5 42.5v16q0 26 -39.5 42.5t-106.5 16.5t-106.5 -16.5t-39.5 -42.5v-16z" />
<glyph unicode="&#xb300;" d="M836 -140h-97v515h-109v-470h-97v858h97v-302h109v321h97v-922zM425 608h-255v-415h51q34 0 64 1t59 3t60 5.5t66 9.5l10 -83q-39 -6 -73 -10.5t-67 -7t-66.5 -3.5t-72.5 -1h-131v587h355v-86z" />
<glyph unicode="&#xb301;" d="M721 782h95v-538h-95v240h-93v-238h-94v524h94v-201h93v213zM420 642h-255v-251h54q33 0 63 1t59 3t59.5 5t64.5 8l10 -81q-39 -6 -72.5 -10t-66 -6t-65.5 -3t-72 -1h-131v419h352v-84zM211 196h605v-345h-99v260h-506v85z" />
<glyph unicode="&#xb304;" d="M721 782h95v-655h-95v333h-93v-311h-94v621h94v-226h93v238zM420 637h-255v-271h54q33 0 63 1t59 3t59.5 5t64.5 8l10 -81q-39 -6 -72.5 -10t-66 -6t-65.5 -3t-72 -1h-131v439h352v-84zM323 -44h510v-86h-609v305h99v-219z" />
<glyph unicode="&#xb308;" d="M228 -146v252h492v88h-497v82h593v-250h-492v-90h515v-82h-611zM721 782h95v-459h-95v199h-93v-197h-94v445h94v-164h93v176zM420 656h-256v-214h55q33 0 63 1t59 3t59.5 5t64.5 8l10 -80q-39 -6 -72.5 -10t-66 -6t-65.5 -3t-72 -1h-131v380h352v-83z" />
<glyph unicode="&#xb310;" d="M816 213v-352h-578v352h578zM721 782h95v-521h-95v231h-93v-229h-94v507h94v-193h93v205zM420 642h-255v-234h54q33 0 63 1t59 3t59.5 5t64.5 8l10 -81q-39 -6 -72.5 -10t-66 -6t-65.5 -3t-72 -1h-131v402h352v-84zM336 -55h382v184h-382v-184z" />
<glyph unicode="&#xb311;" d="M816 262v-402h-578v402h98v-116h382v116h98zM721 782h95v-474h-95v198h-93v-196h-94v460h94v-179h93v191zM420 642h-255v-220h54q33 0 63 1t59 3t59.5 5t64.5 8l10 -81q-39 -6 -72.5 -10t-66 -6t-65.5 -3t-72 -1h-131v388h352v-84zM718 -56v119h-382v-119h382z" />
<glyph unicode="&#xb313;" d="M721 782h95v-589h-95v295h-93v-205h-94v487h94v-198h93v210zM420 637h-255v-244h54q33 0 63 1t59 3t59.5 5t64.5 8l10 -81q-39 -6 -72.5 -10t-66 -6t-65.5 -3t-72 -1h-131v412h352v-84zM450 237h98v-93q0 -21 3 -36.5t12.5 -29t26 -25.5t43.5 -27q33 -18 83 -41t125 -54 l-40 -79q-66 28 -114.5 52.5t-82.5 41.5q-48 25 -71.5 42t-32.5 31q-9 -16 -31.5 -33.5t-74.5 -43.5q-33 -17 -81 -40t-114 -51l-42 80q74 30 125 53t84 42q26 15 42.5 28t25.5 26.5t12.5 28.5t3.5 35v93z" />
<glyph unicode="&#xb314;" d="M708 238v-95q0 -20 1.5 -34t6 -26t14 -24t24.5 -26q26 -24 59 -52t72 -57l-54 -68q-36 27 -70.5 56.5t-54.5 46.5q-20 18 -30.5 31t-15.5 21q-5 -9 -13.5 -21t-25.5 -29q-25 -24 -57.5 -52t-66.5 -54q-34 26 -66.5 54t-57.5 52q-17 17 -25.5 29t-13.5 21q-5 -8 -15.5 -21 t-30.5 -31q-20 -17 -54.5 -46.5t-70.5 -56.5l-54 68q39 29 72 57t59 52q15 14 24.5 26t14 24t6 26t1.5 34v95h96v-95q0 -21 1.5 -35.5t5.5 -26.5t12 -23.5t22 -26.5q14 -16 32 -32t42 -37q24 21 42 37t32 32q13 15 21.5 26.5t12.5 23.5t5.5 26.5t1.5 35.5v95h96zM721 782h95 v-504h-95v220h-93v-206h-94v478h94v-187h93v199zM420 642h-255v-233h54q33 0 63 1t59 3t59.5 5t64.5 8l10 -81q-39 -6 -72.5 -10t-66 -6t-65.5 -3t-72 -1h-131v401h352v-84z" />
<glyph unicode="&#xb315;" d="M246 45q0 37 20 68t57.5 54t91 36t119.5 13t119 -13t90.5 -36t58 -54.5t20.5 -67.5v-40q0 -36 -20.5 -67.5t-58 -54.5t-90.5 -36t-119 -13t-119.5 13t-91 36t-57.5 54t-20 68v40zM721 782h95v-554h-95v261h-93v-222h-94v503h94v-196h93v208zM420 639h-255v-250h54 q33 0 63 1t59 3t59.5 5t64.5 8l10 -81q-39 -6 -72.5 -10t-66 -6t-65.5 -3t-72 -1h-131v418h352v-84zM725 39q0 18 -14 35.5t-39 31t-60.5 21.5t-77.5 8t-77.5 -8t-60.5 -21.5t-39 -31t-14 -35.5v-27q0 -19 14 -36.5t39 -31t60.5 -21.5t77.5 -8t77.5 8t60.5 21.5t39 31 t14 35.5v28z" />
<glyph unicode="&#xb31c;" d="M502 613h-325v-424h53q98 0 183.5 6.5t170.5 19.5l13 -83q-89 -16 -182.5 -22.5t-205.5 -6.5h-131v596h424v-86zM896 490h-142v-171h142v-86h-142v-373h-99v922h99v-206h142v-86z" />
<glyph unicode="&#xb354;" d="M517 614h-320v-429h53q98 0 183.5 6.5t170.5 19.5l13 -83q-89 -16 -182.5 -22.5t-205.5 -6.5h-131v601h419v-86zM703 -140v517h-239v86h239v319h99v-922h-99z" />
<glyph unicode="&#xb355;" d="M602 310q-53 -7 -99 -11t-102 -6.5t-130 -3.5t-182 -1v440h427v-85h-330v-270q77 0 130.5 1t97.5 3t85 5.5t93 9.5zM195 191h607v-340h-99v255h-508v85zM704 239v235h-243v85h243v223h98v-543h-98z" />
<glyph unicode="&#xb356;" d="M602 319q-53 -7 -99 -11t-102 -6.5t-130 -3.5t-182 -1v431h427v-85h-330v-261q77 0 130.5 1t97.5 3t85 5.5t93 9.5zM704 251v231h-243v85h243v215h98v-531h-98zM180 203h301v-352h-98v267h-203v85zM519 203h283v-352h-98v267h-185v85z" />
<glyph unicode="&#xb358;" d="M602 283q-53 -7 -99 -11t-102 -6.5t-130 -3.5t-182 -1v461h427v-85h-330v-291q77 0 130.5 1t97.5 3t85 5.5t93 9.5zM704 120v342h-243v85h243v235h98v-662h-98zM325 -44h496v-86h-595v298h99v-212z" />
<glyph unicode="&#xb35b;" d="M802 215v-85h-476v-184h493v-85h-592v354h575zM602 333q-53 -7 -99 -11t-102 -6.5t-130 -3.5t-182 -1v417h427v-85h-330v-247q77 0 130.5 1t97.5 3t85 5.5t93 9.5zM704 260v227h-243v85h243v210h98v-522h-98z" />
<glyph unicode="&#xb35c;" d="M231 -146v250h474v87h-479v82h576v-249h-474v-88h500v-82h-597zM602 374q-53 -7 -99 -11t-102 -6.5t-130 -3.5t-182 -1v392h427v-84h-330v-224q77 0 130.5 1t97.5 3t85 5.5t93 9.5zM704 320v198h-243v84h243v180h98v-462h-98z" />
<glyph unicode="&#xb35e;" d="M514 -144v417h288v-417h-288zM602 374q-53 -7 -99 -11t-102 -6.5t-130 -3.5t-182 -1v392h427v-84h-330v-224q77 0 130.5 1t97.5 3t85 5.5t93 9.5zM167 -144v250h195v87h-198v80h292v-245h-195v-90h33q24 0 44.5 0.5t41 2t42.5 4t48 5.5l7 -82q-98 -12 -204 -12h-106z M704 320v198h-243v84h243v180h98v-462h-98zM709 193h-103v-257h103v257z" />
<glyph unicode="&#xb35f;" d="M709 273h93v-417h-296v417h92v-125h111v125zM602 374q-53 -7 -99 -11t-102 -6.5t-130 -3.5t-182 -1v392h427v-84h-330v-224q77 0 130.5 1t97.5 3t85 5.5t93 9.5zM165 -144v250h189v87h-192v80h286v-245h-189v-90h38q24 0 43.5 0.5t39 2t40.5 4t47 5.5l7 -82 q-49 -6 -97.5 -9t-100.5 -3h-111zM704 320v198h-243v84h243v180h98v-462h-98zM709 -64v132h-111v-132h111z" />
<glyph unicode="&#xb364;" d="M802 219v-358h-575v358h575zM602 334q-53 -7 -99 -11t-102 -6.5t-130 -3.5t-182 -1v416h427v-85h-330v-246q77 0 130.5 1t97.5 3t85 5.5t93 9.5zM325 -55h379v190h-379v-190zM704 264v229h-243v85h243v204h98v-518h-98z" />
<glyph unicode="&#xb365;" d="M802 265v-405h-575v405h98v-117h379v117h98zM602 345q-53 -7 -99 -11t-102 -6.5t-130 -3.5t-182 -1v405h427v-85h-330v-235q77 0 130.5 1t97.5 3t85 5.5t93 9.5zM704 310v188h-243v85h243v199h98v-472h-98zM704 -56v121h-379v-121h379z" />
<glyph unicode="&#xb367;" d="M602 319q-53 -7 -99 -11t-102 -6.5t-130 -3.5t-182 -1v426h427v-85h-330v-256q77 0 130.5 1t97.5 3t85 5.5t93 9.5zM704 190v289h-243v85h243v218h98v-592h-98zM458 239h50h48v-92q0 -21 3 -36.5t12.5 -29t26 -25.5t43.5 -27q33 -18 83 -41t125 -54l-40 -79 q-66 28 -114.5 52.5t-82.5 41.5q-48 25 -71.5 42t-32.5 31q-9 -16 -31.5 -33.5t-74.5 -43.5q-33 -17 -81 -40t-114 -51l-42 80q74 30 125 53t84 42q26 15 42.5 28t25.5 26.5t12.5 28.5t3.5 35v92z" />
<glyph unicode="&#xb369;" d="M240 50q0 36 19.5 68t56 56t89 38t118.5 14t118.5 -14t89 -38t56 -56t19.5 -68v-40q0 -36 -19.5 -68t-56 -56t-89 -38t-118.5 -14t-118.5 14t-89 38t-56 56t-19.5 68v40zM602 317q-53 -7 -99 -11t-102 -6.5t-130 -3.5t-182 -1v429h427v-85h-330v-259q77 0 130.5 1t97.5 3 t85 5.5t93 9.5zM704 238v243h-243v85h243v216h98v-544h-98zM709 44q0 18 -13 36.5t-37 32.5t-58.5 23t-77.5 9t-77.5 -9t-58.5 -23t-37 -32.5t-13 -36.5v-28q0 -18 13 -36.5t37 -32.5t58.5 -23t77.5 -9t77.5 9t58.5 23t37 32.5t13 36.5v28z" />
<glyph unicode="&#xb36b;" d="M812 191v-82h-251q1 -31 18.5 -53.5t65.5 -42.5q23 -10 45 -19t46 -18t51.5 -19t62.5 -22l-36 -80q-57 21 -106 40t-91 36t-68 36t-37 37q-11 -18 -37.5 -37.5t-68.5 -36.5t-91 -36t-106 -40l-37 80q68 24 115.5 42t90.5 37q47 20 64 42.5t19 53.5h-251v82h252v96h99v-96 h251zM602 357q-53 -7 -99 -11t-102 -6.5t-130 -3.5t-182 -1v397h427v-84h-330v-229q77 0 130.5 1t97.5 3t85 5.5t93 9.5zM704 277v220h-243v84h243v201h98v-505h-98z" />
<glyph unicode="&#xb36e;" d="M197 -57h111v195h-106v81h607v-81h-106v-195h111v-81h-617v81zM602 334q-53 -7 -99 -11t-102 -6.5t-130 -3.5t-182 -1v416h427v-85h-330v-246q77 0 130.5 1t97.5 3t85 5.5t93 9.5zM704 264v229h-243v85h243v204h98v-518h-98zM404 -57h203v195h-203v-195z" />
<glyph unicode="&#xb370;" d="M425 608h-255v-415h51q68 0 128 4t131 15l10 -83q-39 -6 -74.5 -10.5t-70.5 -7t-70 -3.5t-74 -1h-131v587h355v-86zM552 763h97v-858h-97v470h-184v86h184v302zM836 -140h-97v922h97v-922z" />
<glyph unicode="&#xb371;" d="M721 782h95v-538h-95v538zM211 196h605v-345h-99v260h-506v85zM374 563h175v207h94v-524h-94v232h-175v85zM420 642h-255v-258h54q33 0 63 1t59 3t59.5 5t64.5 8l10 -81q-39 -6 -72.5 -10t-66 -6t-65.5 -3t-72 -1h-131v426h352v-84z" />
<glyph unicode="&#xb374;" d="M721 782h95v-655h-95v655zM374 550h175v220h94v-621h-94v317h-175v84zM323 -44h510v-86h-609v305h99v-219zM420 637h-255v-281h54q33 0 63 1t59 3t59.5 5t64.5 8l10 -81q-39 -6 -72.5 -10t-66 -6t-65.5 -3t-72 -1h-131v449h352v-84z" />
<glyph unicode="&#xb378;" d="M228 -146v250h492v86h-497v82h593v-248h-492v-88h515v-82h-611zM374 599h175v171h94v-449h-94v194h-175v84zM721 782h95v-463h-95v463zM420 656h-256v-220h55q33 0 63 1t59 3t59.5 5t64.5 8l10 -80q-39 -6 -72.5 -10t-66 -6t-65.5 -3t-72 -1h-131v386h352v-83z" />
<glyph unicode="&#xb380;" d="M721 782h95v-521h-95v521zM374 569h175v201h94v-507h-94v221h-175v85zM816 213v-352h-578v352h578zM336 -55h382v184h-382v-184zM420 642h-255v-245h54q33 0 63 1t59 3t59.5 5t64.5 8l10 -81q-39 -6 -72.5 -10t-66 -6t-65.5 -3t-72 -1h-131v413h352v-84z" />
<glyph unicode="&#xb381;" d="M816 258v-398h-578v398h98v-114h382v114h98zM420 642h-255v-235h54q33 0 63 1t59 3t59.5 5t64.5 8l10 -81q-39 -6 -72.5 -10t-66 -6t-65.5 -3t-72 -1h-131v403h352v-84zM374 578h175v192h94v-464h-94v187h-175v85zM721 782h95v-478h-95v478zM718 -56v117h-382v-117h382z " />
<glyph unicode="&#xb383;" d="M420 637h-255v-253h54q33 0 63 1t59 3t59.5 5t64.5 8l10 -81q-39 -6 -72.5 -10t-66 -6t-65.5 -3t-72 -1h-131v421h352v-84zM450 237h50h48v-93q0 -21 3 -36.5t12.5 -29t26 -25.5t43.5 -27q33 -18 83 -41t125 -54l-40 -79q-66 28 -114.5 52.5t-82.5 41.5q-48 25 -71.5 42 t-32.5 31q-9 -16 -31.5 -33.5t-74.5 -43.5q-33 -17 -81 -40t-114 -51l-42 80q74 30 125 53t84 42q26 15 42.5 28t25.5 26.5t12.5 28.5t3.5 35v93zM374 565h175v205h94v-487h-94v198h-175v84zM721 782h95v-589h-95v589z" />
<glyph unicode="&#xb384;" d="M708 235v-92q0 -20 1.5 -34t6 -26t14 -24t24.5 -26q26 -24 59 -52t72 -57l-54 -68q-36 27 -70.5 56.5t-54.5 46.5q-20 18 -30.5 31t-15.5 21q-5 -9 -13.5 -21t-25.5 -29q-25 -24 -57.5 -52t-66.5 -54q-34 26 -66.5 54t-57.5 52q-17 17 -25.5 29t-13.5 21q-5 -8 -15.5 -21 t-30.5 -31q-20 -17 -54.5 -46.5t-70.5 -56.5l-54 68q39 29 72 57t59 52q15 14 24.5 26t14 24t6 26t1.5 34v92h96v-92q0 -21 1.5 -35.5t5.5 -26.5t12 -23.5t22 -26.5q14 -16 32 -32t42 -37q24 21 42 37t32 32q13 15 21.5 26.5t12.5 23.5t5.5 26.5t1.5 35.5v92h96zM420 642 h-255v-253h54q33 0 63 1t59 3t59.5 5t64.5 8l10 -81q-39 -6 -72.5 -10t-66 -6t-65.5 -3t-72 -1h-131v421h352v-84zM374 570h175v200h94v-481h-94v196h-175v85zM721 782h95v-507h-95v507z" />
<glyph unicode="&#xb385;" d="M721 782h95v-554h-95v554zM374 560h175v210h94v-503h-94v208h-175v85zM246 45q0 37 20 68t57.5 54t91 36t119.5 13t119 -13t90.5 -36t58 -54.5t20.5 -67.5v-40q0 -36 -20.5 -67.5t-58 -54.5t-90.5 -36t-119 -13t-119.5 13t-91 36t-57.5 54t-20 68v40zM725 39 q0 18 -14 35.5t-39 31t-60.5 21.5t-77.5 8t-77.5 -8t-60.5 -21.5t-39 -31t-14 -35.5v-27q0 -19 14 -36.5t39 -31t60.5 -21.5t77.5 -8t77.5 8t60.5 21.5t39 31t14 35.5v28zM420 639h-255v-263h54q33 0 63 1t59 3t59.5 5t64.5 8l10 -81q-39 -6 -72.5 -10t-66 -6t-65.5 -3 t-72 -1h-131v431h352v-84z" />
<glyph unicode="&#xb38c;" d="M703 -140v416h-239v84h239v109h-239v84h239v229h99v-922h-99zM517 616h-320v-436h53q98 0 183.5 4t170.5 16l11 -82q-89 -13 -181.5 -18t-204.5 -5h-131v606h419v-85z" />
<glyph unicode="&#xb390;" d="M580 262q-53 -6 -98.5 -10.5t-99.5 -6.5t-123.5 -3t-169.5 -1v484h413v-83h-316v-318q69 0 118.5 0.5t91 2.5t82 5.5t92.5 9.5zM704 116v264h-231v81h231v64h-231v82h231v175h98v-666h-98zM325 -44h496v-86h-595v289h99v-203z" />
<glyph unicode="&#xb394;" d="M231 -146v239h474v78h-479v81h576v-238h-474v-79h500v-81h-597zM590 331q-53 -7 -98.5 -11t-100.5 -6.5t-126.5 -3.5t-175.5 -1v437h409v-81h-312v-275q73 0 124 1t94 3t83.5 5.5t92.5 9.5zM704 299v141h-199v78h199v50h-199v78h199v136h98v-483h-98z" />
<glyph unicode="&#xb3a0;" d="M716 225v-84q0 -20 1.5 -34t6 -26t14 -24t24.5 -26q26 -24 59 -51t72 -56l-54 -68q-36 27 -70.5 55.5t-54.5 45.5q-20 18 -30.5 31t-15.5 21q-5 -9 -13.5 -21t-25.5 -29q-25 -24 -57.5 -51t-66.5 -53q-34 26 -66.5 53t-57.5 51q-17 17 -25.5 29t-13.5 21q-5 -8 -15.5 -21 t-30.5 -31q-20 -17 -54.5 -45.5t-70.5 -55.5l-54 68q39 29 72 56t59 51q15 14 24.5 26t14 24t6 26t1.5 34v84h96v-84q0 -21 1.5 -35.5t5.5 -26.5t12 -23.5t22 -26.5q14 -16 32 -31t42 -36q24 21 42 36t32 31q13 15 21.5 26.5t12.5 23.5t5.5 26.5t1.5 35.5v84h96zM580 302 q-53 -6 -98.5 -10t-99.5 -6t-123.5 -3t-169.5 -1v454h406v-83h-309v-288q69 0 118.5 0.5t91 2.5t82 5.5t92.5 8.5zM704 268v152h-221v79h221v49h-221v80h221v154h98v-514h-98z" />
<glyph unicode="&#xb3a1;" d="M240 45q0 36 19.5 67t56 54t89 36.5t118.5 13.5t118.5 -13.5t89 -36.5t56 -54t19.5 -67v-40q0 -36 -19.5 -67t-56 -54t-89 -36.5t-118.5 -13.5t-118.5 13.5t-89 36.5t-56 54t-19.5 67v40zM580 291q-53 -6 -98.5 -10t-99.5 -6t-123.5 -3t-169.5 -1v458h406v-83h-309v-292 q69 0 118.5 0.5t91 2.5t82 5.5t92.5 8.5zM704 228v181h-221v79h221v53h-221v80h221v161h98v-554h-98zM709 39q0 18 -13 35t-37 30.5t-58.5 22t-77.5 8.5t-77.5 -8.5t-58.5 -22t-37 -30.5t-13 -35v-28q0 -18 13 -35.5t37 -31t58.5 -21.5t77.5 -8t77.5 8t58.5 21.5t37 31 t13 35.5v28z" />
<glyph unicode="&#xb3a8;" d="M558 763h96v-858h-96v372h-182v85h182v95h-182v85h182v221zM425 608h-255v-415h51q68 0 129.5 4t132.5 15l10 -83q-78 -13 -146.5 -17.5t-145.5 -4.5h-131v587h355v-86zM836 -140h-97v922h97v-922z" />
<glyph unicode="&#xb3ac;" d="M424 641h-259v-311h54q33 0 63 1t59 3t59.5 5t64.5 8l10 -80q-39 -6 -72.5 -10t-66 -6t-65.5 -3t-72 -1h-131v476h356v-82zM552 770h93v-625h-93v236h-168v78h168v68h-168v78h168v165zM325 -44h505v-86h-604v300h99v-214zM721 782h95v-659h-95v659z" />
<glyph unicode="&#xb3c4;" d="M770 271h-265v-204h373v-84h-846v84h373v204h-259v434h613v-84h-514v-266h525v-84z" />
<glyph unicode="&#xb3c5;" d="M748 748v-84h-493v-158h499v-84h-249v-96h373v-84h-846v84h373v96h-248v326h591zM141 157h619v-306h-99v222h-520v84z" />
<glyph unicode="&#xb3c8;" d="M748 743v-84h-493v-169h499v-84h-249v-111h373v-84h-846v84h373v111h-248v337h591zM253 -44h521v-86h-620v273h99v-187z" />
<glyph unicode="&#xb3cb;" d="M748 748v-84h-493v-145h499v-84h-249v-93h373v-84h-846v84h373v93h-248v313h591zM759 181v-85h-506v-150h522v-85h-621v320h605z" />
<glyph unicode="&#xb3cc;" d="M748 758v-83h-493v-129h499v-83h-249v-80h373v-82h-846v82h373v80h-248v295h591zM153 -146v229h506v68h-511v81h608v-228h-506v-69h533v-81h-630z" />
<glyph unicode="&#xb3ce;" d="M748 758v-83h-493v-129h499v-83h-249v-76h373v-82h-846v82h373v76h-248v295h591zM485 -145v381h288v-381h-288zM138 -145v232h193v70h-196v79h290v-226h-193v-74h31q24 0 44.5 0.5t41 2t42.5 4t48 5.5l7 -81q-98 -12 -204 -12h-104zM680 158h-103v-225h103v225z" />
<glyph unicode="&#xb3d0;" d="M748 758v-83h-493v-133h499v-83h-249v-76h373v-82h-846v82h373v76h-248v299h591zM636 13q-6 -13 -12.5 -24.5t-21.5 -31.5t-37 -47t-52 -62l-65 59l4 -40q-98 -12 -204 -12h-110v229h193v69h-196v79h290v-225h-193v-71h37q24 0 44.5 0.5t41 2t42.5 4t48 5.5l3 -38 q30 33 51 57.5t36 44.5q16 22 26 38.5t16 32.5t8 32.5t2 38.5v85h98v-85q0 -22 2 -38.5t8 -32.5t16 -32.5t26 -38.5q15 -20 36 -45t52 -59l-66 -60q-30 35 -52 62t-37 47t-21.5 31.5t-11.5 24.5h-1z" />
<glyph unicode="&#xb3d4;" d="M748 748v-84h-493v-145h499v-84h-249v-93h373v-84h-846v84h373v93h-248v313h591zM757 -139h-604v315h604v-315zM659 93h-408v-149h408v149z" />
<glyph unicode="&#xb3d5;" d="M748 753v-84h-493v-141h499v-84h-249v-93h373v-84h-846v84h373v93h-248v309h591zM757 213v-353h-604v353h98v-91h408v91h98zM659 -56v97h-408v-97h408z" />
<glyph unicode="&#xb3d7;" d="M748 748v-84h-493v-149h499v-84h-249v-100h373v-84h-846v84h373v100h-248v317h591zM504 198v-65q0 -16 2.5 -29t12.5 -26t29 -26.5t51 -30.5q36 -19 87.5 -41.5t123.5 -51.5l-41 -79q-63 26 -113 48.5t-88 40.5q-58 27 -82 44.5t-31 28.5q-8 -12 -32 -29t-81 -45 q-37 -18 -86.5 -40t-115.5 -50l-41 80q73 30 123.5 52t87.5 42q32 17 51 31t28.5 26.5t12.5 25.5t3 29v65h99z" />
<glyph unicode="&#xb3d9;" d="M748 748v-84h-493v-147h499v-84h-249v-95h373v-84h-846v84h373v95h-248v315h591zM455 -166q-66 0 -119.5 12.5t-91 35t-57.5 53t-20 65.5v34q0 36 20 66.5t57.5 52.5t91 34.5t119.5 12.5t119 -12.5t90.5 -35t58 -52.5t20.5 -66v-34q0 -35 -20 -65t-57.5 -52.5t-91 -35.5 t-119.5 -13zM455 119q-42 0 -77 -7.5t-60 -20t-39 -29t-14 -34.5v-22q0 -18 14 -34.5t39 -29t60 -20t77 -7.5t77 7.5t60 20t39 29t14 34.5v22q0 18 -14 34.5t-39 29t-60 20t-77 7.5z" />
<glyph unicode="&#xb3db;" d="M748 758v-83h-493v-127h499v-83h-249v-79h373v-82h-846v82h373v79h-248v293h591zM766 182v-79h-261q0 -16 4 -28t13.5 -22t25.5 -19.5t41 -20.5q23 -10 45 -19.5t46 -18.5t52 -19t62 -21l-36 -80q-57 20 -106 38.5t-91 36.5t-68 34.5t-37 34.5q-11 -18 -37.5 -35 t-68.5 -35t-91 -36.5t-106 -38.5l-37 80q67 23 115 41t91 38q24 11 40 20.5t25.5 19.5t13.5 22t5 28h-262v79h262v84h99v-84h261z" />
<glyph unicode="&#xb3dd;" d="M748 758v-83h-493v-127h499v-83h-249v-79h373v-82h-846v82h373v79h-248v293h591zM759 234v-82h-506v-68h497v-79h-497v-69h522v-82h-621v380h605z" />
<glyph unicode="&#xb3e0;" d="M546 408v-83h-176v-184q67 3 126.5 7t120.5 10l9 -83q-63 -6 -126.5 -10.5t-134 -7.5t-151.5 -4.5t-179 -1.5v86q67 -1 124.5 -0.5t109.5 1.5v187h-178v379h452v-83h-356v-213h359zM908 346h-138v-486h-98v922h98v-350h138v-86z" />
<glyph unicode="&#xb3e4;" d="M619 228q-60 -6 -115.5 -10.5t-122 -7t-150.5 -4t-199 -1.5v85h129.5t107.5 1v122h-174v326h441v-82h-347v-162h350v-82h-172v-119q64 2 121 6t123 10zM668 92v690h98v-293h130v-86h-130v-311h-98zM277 -46h514v-85h-613v257h99v-172z" />
<glyph unicode="&#xb3e8;" d="M167 -146v233h502v67h-507v82h604v-229h-506v-71h533v-82h-626zM539 552v-81h-175v-83q65 2 123 6t124 10l8 -80q-60 -6 -115.5 -10.5t-122 -7t-150.5 -4t-199 -1.5v83h128t106 1v86h-171v278h441v-81h-347v-116h350zM668 270v512h98v-196h130v-86h-130v-230h-98z" />
<glyph unicode="&#xb3fc;" d="M854 -140h-97v481h-87v-456h-97v881h97v-339h87v355h97v-922zM483 412v-83h-143v-164q55 1 102 2.5t90 4.5l4 -84q-96 -6 -214.5 -8.5t-275.5 -2.5v86h193v166h-148v375h389v-83h-295v-209h298z" />
<glyph unicode="&#xb410;" d="M483 513v-83h-141v-100q57 3 103 6t84 7l6 -82q-85 -8 -207.5 -14t-275.5 -6v84q53 0 100 0.5t90 1.5v103h-137v305h375v-83h-281v-139h284zM746 782h95v-541h-95v237h-88v-235h-94v527h94v-207h88v219zM725 190v-70q0 -17 1.5 -30t6.5 -24.5t14 -22.5t24 -24 q26 -24 59 -47.5t72 -49.5l-53 -69q-37 26 -71 51.5t-55 42.5q-20 17 -30.5 29t-15.5 20q-5 -9 -13.5 -20t-25.5 -27q-25 -23 -56.5 -46.5t-67.5 -49.5q-36 26 -67.5 49.5t-56.5 46.5q-17 16 -25.5 27t-13.5 20q-5 -8 -15.5 -20t-30.5 -29q-21 -17 -55 -42.5t-71 -51.5 l-53 69q39 26 72 49.5t59 47.5q15 13 24 24t14 22.5t6.5 24.5t1.5 30v70h96v-70q0 -18 1.5 -31.5t6 -24.5t12.5 -22t21 -25q15 -16 33 -29t41 -29q23 16 41 29t33 29q13 14 21 25t12.5 22t6 24.5t1.5 31.5v70h96z" />
<glyph unicode="&#xb418;" d="M573 411v-83h-178v-189q70 2 132 6.5t123 10.5l9 -83q-63 -6 -129 -10.5t-139.5 -7.5t-157 -4.5t-181.5 -1.5v86q69 -1 128.5 -0.5t113.5 1.5v192h-180v376h456v-83h-360v-210h363zM709 -140v922h98v-922h-98z" />
<glyph unicode="&#xb41c;" d="M651 228q-60 -6 -117 -10.5t-125.5 -7t-154 -4t-200.5 -1.5v85h130.5t109.5 1v122h-171v326h441v-82h-347v-162h350v-82h-175v-119q67 2 126 6t125 10zM297 -46h524v-85h-623v266h99v-181zM704 92v690h98v-690h-98z" />
<glyph unicode="&#xb420;" d="M203 -146v233h502v67h-507v82h604v-229h-506v-71h533v-82h-626zM567 553v-80h-175v-87q63 2 124 6.5t127 11.5l7 -76q-73 -7 -142.5 -12t-141.5 -8t-148.5 -4t-163.5 -1v80q66 -1 125 -1t115 2v89h-171v278h441v-80h-348v-118h351zM704 270v512h98v-512h-98z" />
<glyph unicode="&#xb428;" d="M802 -139h-604v322h604v-322zM567 523v-82h-175v-88q59 2 120 5.5t131 9.5l7 -82q-63 -6 -130 -10.5t-140 -6.5t-154 -3t-172 -1v85q130 -1 240 0v91h-171v303h441v-82h-347v-139h350zM704 100h-408v-156h408v156zM704 228v554h98v-554h-98z" />
</font>
</defs>
</svg>
